<?xml version="1.0" standalone="no"?>
<!DOCTYPE svg PUBLIC "-//W3C//DTD SVG 1.1//EN" "http://www.w3.org/Graphics/SVG/1.1/DTD/svg11.dtd" >
<svg xmlns="http://www.w3.org/2000/svg">
<metadata>
<json>
<![CDATA[
{
	"fontFamily": "icomoon",
	"majorVersion": 1,
	"minorVersion": 10,
	"fontURL": "https://wp-cocoon.com/",
	"copyright": "yhira",
	"licenseURL": "https://wp-cocoon.com/terms-of-use/",
	"license": "GNU GENERAL PUBLIC LICENSE（GPL）",
	"description": "Icon font organized for Cocoon. Created by IcoMoon.\nFont generated by IcoMoon.",
	"version": "Version 1.10",
	"fontId": "icomoon",
	"psName": "icomoon",
	"subFamily": "Regular",
	"fullName": "icomoon"
}
]]>
</json>
</metadata>
<defs>
<font id="icomoon" horiz-adv-x="1024">
<font-face units-per-em="1024" ascent="960" descent="-64" />
<missing-glyph horiz-adv-x="1024" />
<glyph unicode="&#x20;" horiz-adv-x="512" d="" />
<glyph unicode="&#xe900;" glyph-name="slack-logo" data-tags="slack" d="M247.594 327.73c-0.107-52.87-42.9-95.701-95.741-95.874h-0.019c-52.889 0.131-95.731 42.981-95.838 95.863v0.011c0.149 52.854 42.977 95.653 95.827 95.76h95.772v-95.76zM295.892 327.73c0.148 52.839 42.953 95.629 95.789 95.76h0.014c52.843-0.131 95.647-42.921 95.796-95.744v-239.908c-0.131-52.866-42.94-95.683-95.786-95.838h-0.016c-52.863 0.148-95.671 42.972-95.796 95.824v239.906zM391.692 712.406c-52.833 0.148-95.625 42.93-95.796 95.741v0.019c0.131 52.866 42.94 95.683 95.786 95.838h0.016c52.863-0.148 95.671-42.972 95.796-95.824v-95.774h-95.796zM391.692 664.108c52.848-0.148 95.647-42.953 95.796-95.786v-0.016c-0.148-52.848-42.953-95.647-95.786-95.796h-239.872c-52.866 0.131-95.683 42.94-95.838 95.786v0.016c0.148 52.863 42.972 95.671 95.824 95.796h239.87zM776.33 568.308c0.148 52.863 42.972 95.671 95.824 95.796h0.014c52.866-0.131 95.683-42.94 95.838-95.786v-0.016c-0.148-52.863-42.972-95.671-95.824-95.796h-95.85v95.796zM728.144 568.308c-0.149-52.872-42.996-95.689-95.862-95.796h-0.012c-52.839 0.148-95.629 42.953-95.76 95.789v239.87c0.107 52.861 42.906 95.683 95.744 95.838h0.016c52.893-0.107 95.743-42.949 95.874-95.825v-239.87zM632.27 183.67c52.893-0.107 95.743-42.949 95.874-95.825v-0.014c-0.131-52.889-42.981-95.731-95.863-95.838h-0.011c-52.854 0.149-95.653 42.977-95.76 95.827v95.849h95.76zM632.27 231.856c-52.869 0.149-95.677 43.002-95.76 95.865v0.009c0.131 52.834 42.926 95.629 95.746 95.76h239.906c52.861-0.107 95.683-42.906 95.838-95.744v-0.016c-0.107-52.893-42.949-95.743-95.825-95.874h-239.906z" />
<glyph unicode="&#xe901;" glyph-name="copy" data-tags="clipboard, paste" d="M438.857 0h512v365.714h-237.714c-30.286 0-54.857 24.571-54.857 54.857v237.714h-219.429v-658.286zM585.143 822.857v36.571c0 9.714-8.571 18.286-18.286 18.286h-402.286c-9.714 0-18.286-8.571-18.286-18.286v-36.571c0-9.714 8.571-18.286 18.286-18.286h402.286c9.714 0 18.286 8.571 18.286 18.286zM731.429 438.857h170.857l-170.857 170.857v-170.857zM1024 365.714v-384c0-30.286-24.571-54.857-54.857-54.857h-548.571c-30.286 0-54.857 24.571-54.857 54.857v91.429h-310.857c-30.286 0-54.857 24.571-54.857 54.857v768c0 30.286 24.571 54.857 54.857 54.857h621.714c30.286 0 54.857-24.571 54.857-54.857v-187.429c7.429-4.571 14.286-9.714 20.571-16l233.143-233.143c21.714-21.714 38.857-63.429 38.857-93.714z" />
<glyph unicode="&#xe902;" glyph-name="home-logo" data-tags="home, house" d="M948.151 366.222l-163.556 163.556v245.335h-109.038v-136.297l-163.556 163.556-436.151-436.151v-27.26h109.038v-272.594h272.594v163.556h109.038v-163.556h272.594v272.594h109.038z" />
<glyph unicode="&#xe903;" glyph-name="rakuten-logo" data-tags="rakuten-logo" d="M466.089-56.538c-65.13 6.598-123.947 23.331-179.109 50.957-49.387 24.734-88.119 52.184-127.363 90.269-84.708 82.206-136.25 187.181-150.914 307.366-2.933 24.041-2.523 92.594 0.699 116.587 11.947 88.993 42.545 167.143 92.134 235.313 75.493 103.783 185.421 174.99 308.505 199.837 32.766 6.615 53.405 8.819 90.064 9.62 86.251 1.884 158.371-13.85 234.488-51.156 123.506-60.533 215.915-166.787 258.425-297.141 10.492-32.174 16.467-58.696 21.575-95.766 3.553-25.788 3.584-96.507 0.054-122.946-12.008-89.924-44.132-170.154-96.118-240.062-82.676-111.177-204.025-182.283-342.918-200.934-20.589-2.765-89.356-3.984-109.521-1.941zM445.597 259.92v84.791h72.054l127.223-169.581h64.29c35.357 0 64.29 0.453 64.29 1.006s-34.155 46.439-75.901 101.967l-75.901 100.956 6.302 5.082c37.282 30.063 62.558 72.57 69.827 117.429 2.775 17.125 2.798 45.506 0.049 61.641-11.663 68.458-60.368 125.309-126.25 147.366-26.894 9.008-26.767 8.995-133.403 9.631l-97.156 0.58v-545.662h104.575v84.79zM445.597 531.83v84.209h39.272c43.198 0 48.812-0.746 65.031-8.638 26.369-12.832 44.44-39.895 46.414-69.512 2.542-38.136-21.859-73.816-58.86-86.069-8.356-2.767-12.92-3.094-50.521-3.622l-41.335-0.581v84.209z" />
<glyph unicode="&#xe904;" glyph-name="rakuten-room-logo" data-tags="rakuten-room-logo" d="M710.804 37.913c-86.497 8.355-166.626 49.802-245.421 126.954-35.147 34.419-63.409 68.154-88.64 105.856-9.177 13.708-16.838 25.114-17.017 25.324s-0.334-48.928-0.334-109.226v-109.62h-192.322v781.172l162.644 0.686c140.002 0.591 165.866 0.155 185.776-3.111 107.101-17.561 194.105-97.368 220.952-202.678 4.453-17.478 5.217-26.864 5.183-64.391-0.026-40.548-0.538-45.732-6.547-67.365-12.756-45.914-34.381-83.721-67.633-118.206-29.103-30.193-64.191-53.163-101.091-66.176l-11.474-4.042 17.574-21.103c34.616-41.552 73.091-73.214 109.268-89.904 18.026-8.319 47.257-15.483 63.187-15.483 10.697 0 41.087 5.515 50.606 9.177 6.154 2.374 6.906 1.691 22.553-20.579 17.395-24.744 66.892-76.324 89.201-92.964 7.51-5.598 13.65-11.124 13.65-12.266 0-3.536-56.839-29.743-81.306-37.479-40.987-12.965-89.176-18.424-128.829-14.586zM476.314 498.526c54.575 7.892 91.542 58.819 83.572 115.107-4.409 31.151-18.482 57.387-39.234 73.175-20.034 15.244-24.939 16.055-96.984 16.056l-64.282 0.001 1.286-206.572 50.411 0.047c27.726 0.026 57.077 1.009 65.223 2.187z" />
<glyph unicode="&#xe905;" glyph-name="note-logo" data-tags="note-logo" d="M121.42 2.646l-19.137 15.975-1.516 315.4c-1.182 245.676 0.043 319.177 5.527 332.491 6.815 16.542 180.828 208.037 208.799 229.775 13.185 10.246 26.336 10.814 287.44 12.428 242.148 1.497 275.55 0.674 290.397-7.141 9.23-4.86 19.772-13.627 23.432-19.48 8.878-14.215 10.051-851.335 1.215-867.844-14.894-27.825-11.206-27.578-407.568-27.578h-369.453l-19.137 15.975zM807.058 448.228v339.95h-429.082l-43.965-45.602c-24.181-25.081-59.472-62.484-78.424-83.119l-34.459-37.513v-513.668h585.933v339.95zM306.307 513.588c-20.91 17.987-22.627 54.697-3.283 70.356 14.638 11.851 50.655 18.299 86.387 15.455l25.182-2.001v43.242c0 60.391 12.573 80.701 50.167 81.034 14.247 0.128 23.504-3.807 33.167-14.090 12.946-13.778 13.403-17.070 13.403-96.579 0-110.925 3.978-106.87-107.172-109.264-80.402-1.734-82.33-1.5-97.851 11.851z" />
<glyph unicode="&#xe906;" glyph-name="tiktok-logo" data-tags="tiktok" d="M534.613 959.147c55.893 0.853 111.36 0.427 166.827 0.853 3.413-65.28 26.88-131.84 74.667-177.92 47.787-47.36 115.2-69.12 180.907-76.373v-171.947c-61.44 2.133-123.307 14.933-179.2 41.387-24.32 11.093-46.933 25.173-69.12 39.68-0.427-124.587 0.427-249.173-0.853-373.333-3.413-59.733-23.040-119.040-57.6-168.107-55.893-81.92-152.747-135.253-252.16-136.96-61.013-3.413-122.027 13.227-174.080 43.947-86.187 50.773-146.773 143.787-155.733 243.627-0.853 21.333-1.28 42.667-0.427 63.573 7.68 81.067 47.787 158.72 110.080 211.627 70.827 61.44 169.813 90.88 262.4 73.387 0.853-63.147-1.707-126.293-1.707-189.44-42.24 13.653-91.733 9.813-128.853-15.787-26.88-17.493-47.36-44.373-58.027-74.667-8.96-21.76-6.4-45.653-5.973-68.693 10.24-69.973 77.653-128.853 149.333-122.453 47.787 0.427 93.44 28.16 118.187 68.693 8.107 14.080 17.067 28.587 17.493 45.227 4.267 76.373 2.56 152.32 2.987 228.693 0.427 171.947-0.427 343.467 0.853 514.987z" />
<glyph unicode="&#xe907;" glyph-name="paw" data-tags="iconmonstr-cat-7" d="M510.285 485.331c-114.653 0-253.008-211.491-281.904-325.395-26.397-104.16 50.512-186.256 149.709-152.061 45.101 15.533 99.379 46.144 133.917 46.739 31.731 0.595 112.371-38.080 153.139-48.195 92.883-23.037 151.536 56.672 130.067 153.517-21.469 96.803-160.608 325.395-284.928 325.395zM913.22 649.229c-44.387 20.16-122.528-25.725-170.093-104.384-47.187-78.099-38.717-164.003 33.376-196.749 83.104-37.709 143.808 16.989 170.093 104.384 27.44 91.469 10.976 176.624-33.376 196.749zM93.084 622.867c38.976 27.216 122.157-2.877 181.741-69.811 59.213-66.528 66.381-150.451 3.059-194.691-72.989-50.995-140.973-9.331-181.741 69.811-42.637 82.845-42.035 167.475-3.059 194.691zM677.088 895.104c-49.357 9.373-116.48-55.699-144.893-146.083-28.259-89.747 1.197-173.747 81.424-188.944 92.477-17.549 139.923 52.080 144.928 146.048 5.187 98.336-32.067 179.613-81.459 188.979zM292.739 892.941c47.341 16.835 123.648-37.107 165.648-122.080 41.699-84.336 25.501-171.885-51.408-199.213-88.669-31.549-146.272 29.939-165.648 122.045-20.272 96.355 4.067 182.413 51.408 199.248z" />
<glyph unicode="&#xe908;" glyph-name="check-box" data-tags="iconmonstr-checkbox-9" d="M428.416 234.667l-192 184.277 59.52 61.227 131.413-125.312 299.563 306.475 60.672-60.117-359.168-366.549zM213.333 874.667c-70.571 0-128-57.429-128-128v-597.333c0-70.571 57.429-128 128-128h597.333c70.571 0 128 57.429 128 128v597.333c0 70.571-57.429 128-128 128h-597.333zM1024 746.667v-597.333c0-117.803-95.488-213.333-213.333-213.333h-597.333c-117.845 0-213.333 95.531-213.333 213.333v597.333c0 117.803 95.488 213.333 213.333 213.333h597.333c117.845 0 213.333-95.531 213.333-213.333z" />
<glyph unicode="&#xe909;" glyph-name="check-box-none" data-tags="iconmonstr-checkbox-11" d="M213.333 874.667c-70.571 0-128-57.429-128-128v-597.333c0-70.571 57.429-128 128-128h597.333c70.571 0 128 57.429 128 128v597.333c0 70.571-57.429 128-128 128h-597.333zM1024 746.667v-597.333c0-117.803-95.488-213.333-213.333-213.333h-597.333c-117.845 0-213.333 95.531-213.333 213.333v597.333c0 117.803 95.488 213.333 213.333 213.333h597.333c117.845 0 213.333-95.531 213.333-213.333z" />
<glyph unicode="&#xe90a;" glyph-name="check" data-tags="iconmonstr-check-mark-2" d="M384 62.507l-384 368.555 119.083 122.453 262.656-250.624 520.96 530.603 121.301-120.192z" />
<glyph unicode="&#xe90b;" glyph-name="circle" data-tags="iconmonstr-circle-2" d="M512 874.667c235.264 0 426.667-191.403 426.667-426.667s-191.403-426.667-426.667-426.667-426.667 191.403-426.667 426.667 191.403 426.667 426.667 426.667zM512 960c-282.752 0-512-229.248-512-512s229.248-512 512-512 512 229.248 512 512-229.248 512-512 512z" />
<glyph unicode="&#xe90c;" glyph-name="x-corp-logo" data-tags="x-corp-logo" horiz-adv-x="1005" d="M574.245 507.887l283.944 332.113h-67.209l-246.846-288.72-200.14 288.72h-226.226l301.437-434.859-298.509-349.151h67.209l261.405 305.75 211.937-305.75h226.226l-313.242 451.889zM214.926 788.306h103.58l471.823-680.614h-103.58l-471.823 680.614z" />
<glyph unicode="&#xe90d;" glyph-name="ban" data-tags="iconmonstr-forbidden-1" d="M512 960c-282.752 0-512-229.248-512-512s229.248-512 512-512 512 229.248 512 512-229.248 512-512 512zM896 448c0-82.773-26.624-159.36-71.339-222.165l-534.827 534.827c62.805 44.715 139.392 71.339 222.165 71.339 211.712 0 384-172.288 384-384zM128 448c0 82.773 26.624 159.36 71.339 222.165l534.784-534.784c-62.763-44.757-139.349-71.381-222.123-71.381-211.712 0-384 172.288-384 384z" />
<glyph unicode="&#xe90e;" glyph-name="push7" data-tags="push7" d="M453.43 543.171l95.171 402.56-300.097-563.593h307.389l-117.094-431.868 336.697 592.901z" />
<glyph unicode="&#xe90f;" glyph-name="question" data-tags="iconmonstr-help-3" d="M512 874.667c235.264 0 426.667-191.403 426.667-426.667s-191.403-426.667-426.667-426.667-426.667 191.403-426.667 426.667 191.403 426.667 426.667 426.667zM512 960c-282.752 0-512-229.248-512-512s229.248-512 512-512 512 229.248 512 512-229.248 512-512 512zM565.333 234.667c0-29.44-23.851-53.333-53.333-53.333-29.397 0-53.333 23.893-53.333 53.333s23.936 53.333 53.333 53.333c29.483 0 53.333-23.893 53.333-53.333zM624.768 661.248c-25.941 26.283-64.64 40.747-108.843 40.747-93.013 0-153.173-66.133-153.173-168.533h85.803c0 63.403 35.371 85.888 65.621 85.888 27.051 0 55.765-17.963 58.197-52.309 2.645-36.139-16.64-54.485-41.045-77.696-60.245-57.301-61.355-85.035-61.099-147.968h85.547c-0.555 28.331 1.28 51.328 39.893 92.928 28.885 31.147 64.811 69.888 65.536 128.939 0.469 39.424-12.117 73.344-36.437 98.005z" />
<glyph unicode="&#xe910;" glyph-name="info" data-tags="iconmonstr-info-6" d="M512 874.667c235.264 0 426.667-191.403 426.667-426.667s-191.403-426.667-426.667-426.667-426.667 191.403-426.667 426.667 191.403 426.667 426.667 426.667zM512 960c-282.752 0-512-229.248-512-512s229.248-512 512-512 512 229.248 512 512-229.248 512-512 512zM511.957 714.667c29.44 0 53.376-23.893 53.376-53.333s-23.936-53.333-53.376-53.333-53.291 23.893-53.291 53.333 23.851 53.333 53.291 53.333zM597.333 192h-170.667v42.667c20.651 7.637 42.667 8.576 42.667 31.36v190.592c0 22.784-22.016 26.368-42.667 34.005v42.667h128v-267.307c0-22.827 22.059-23.808 42.667-31.36v-42.624z" />
<glyph unicode="&#xe911;" glyph-name="speech-balloon" data-tags="iconmonstr-speech-bubble-2" d="M512 832c235.264 0 426.667-153.259 426.667-341.632 0-209.792-219.477-339.669-422.827-339.669-82.645 0-144.384 16.939-187.477 27.477-42.667-26.155-68.011-44.245-182.272-77.653 22.827 58.581 30.805 117.248 25.643 181.973-35.712 42.667-86.4 102.4-86.4 207.872 0 188.373 191.403 341.632 426.667 341.632zM512 917.333c-270.421 0-512-180.309-512-426.965 0-87.467 31.531-173.355 87.339-240 2.347-78.080-43.648-190.123-85.035-271.701 111.019 20.053 268.843 64.341 340.395 108.203 60.459-14.72 118.357-21.461 173.184-21.461 302.251 0 508.16 206.379 508.16 425.003-0.043 247.936-243.285 426.923-512.043 426.923z" />
<glyph unicode="&#xe912;" glyph-name="evernote" d="M887.758 739.431c0 58.88-88.679 65.433-88.679 65.433l-208.334 13.106c0 0-4.455 56.729-46.592 76.391-42.087 19.609-88.37 13.671-121.6 13.312s-41.163-42.802-41.163-82.841 0.768-86.119 0.768-115.2c0-52.018-22.887-74.19-80.178-74.19h-118.121c-33.024 2.151-58.777-3.275-58.777-30.002 0-26.674 38.912-254.567 92.263-307.15 30.976-30.514 220.366-51.918 260.249-51.918s26.624 117.81 37.682 117.81 23.296-66.56 86.119-82.126c62.823-15.666 146.688-12.75 151.143-57.447 5.785-58.983 11.058-135.321-27.751-140.75l-87.808-3.481c-60.21 4.352-44.082 70.094-17.511 70.094s39.886 1.074 39.886 1.074l3.328 71.986c0 0-137.881 16.281-143.769-76.75-5.326-84.992 9.266-125.081 19.968-133.785 10.752-8.8 29.287-25.799 198.144-25.799 237.927 0 150.734 693.401 150.734 752.231zM790.528 431.566c-9.319-9.934-43.111 16.434-75.367 16.434-32.306 0-67.175-17.102-75.367-5.888-8.142 11.264 7.527 101.991 68.352 101.991s91.751-102.553 82.382-112.537zM297.113 746.702c0 11.623 3.022 152.782 3.022 152.782l-179.509-176.078c0 0 124.007 0 148.327 0 24.423 0 28.16 11.621 28.16 23.296z" />
<glyph unicode="&#xe913;" glyph-name="feedly" d="M977.883 426.439l-425.664 425.634c-22.208 22.224-58.231 22.224-80.439 0l-425.657-425.634c-22.208-22.238-22.224-58.251 0-80.459l318.718-318.713h294.315l318.711 318.711c22.224 22.231 22.224 58.224 0.016 80.462zM269.625 337.365l-47.374 47.365c-3.296 3.305-3.296 8.656 0 11.954l281.026 281.040c3.319 3.305 8.672 3.305 11.984 0l63.248-63.285c3.289-3.305 3.289-8.642 0-11.947l-265.136-265.127h-43.749zM581.255 161.207l-47.387-47.365h-43.749l-47.374 47.365c-3.296 3.305-3.296 8.649 0 11.947l63.271 63.278c3.305 3.319 8.656 3.319 11.975 0l63.264-63.278c3.289-3.298 3.289-8.635 0-11.947zM581.936 384.025l-157.616-157.609h-43.749l-47.374 47.365c-3.296 3.296-3.296 8.649 0 11.947l173.513 173.52c3.305 3.312 8.656 3.312 11.968 0l63.264-63.278c3.285-3.289 3.285-8.633-0.007-11.945z" />
<glyph unicode="&#xe914;" glyph-name="pocket" d="M880.327 858.681h-742.21c-50.48 0-91.397-40.923-91.397-91.397v-251.127c0-2.018 0.094-3.872 0.217-5.643-0.137-4.379-0.217-8.839-0.217-13.413 0-255.433 207.072-462.498 462.507-462.498 252.674 0 457.888 202.651 462.297 454.279 0.13 1.698 0.21 3.493 0.21 5.504l-0.002 272.898c0 50.473-40.923 91.397-91.406 91.397zM767.527 511.995l-207.058-207.042c-13.995-14.002-33.001-19.849-51.243-17.648-18.229-2.201-37.248 3.646-51.243 17.641l-207.058 207.049c-24.199 24.199-24.199 63.422 0 87.607 24.199 24.199 63.431 24.199 87.614 0l170.688-170.681 170.681 170.681c24.206 24.199 63.431 24.199 87.621 0 24.192-24.176 24.192-63.415 0-87.607z" />
<glyph unicode="&#xe915;" glyph-name="line" d="M509.806 897.586c-254.706 0-461.193-168.974-461.193-377.429 0-187.175 166.535-342.443 384.937-372.192-0.050-0.030-0.146-0.080-0.146-0.080 0.974-0.11 1.888-0.21 2.839-0.32 2.398-0.32 4.793-0.617 7.198-0.887 23.966-3.305 35.346-9.086 34.969-35.2-0.427-29.536-11.984-51.367-18.839-65.493-6.848-14.126-21.41-71.92 44.519-35.957 50.75 27.671 300.009 149.561 412.098 331.595 29.673 45.15 48.331 95.829 53.321 149.641 0.16 1.655 0.327 3.312 0.464 4.96 0.19 2.585 0.384 5.177 0.517 7.785 0.304 5.353 0.501 10.713 0.501 16.13 0.002 208.464-206.482 377.445-461.184 377.445zM316.306 411.216h-87.831c-12.978 0-23.502 10.517-23.502 23.502l-0.007 178.146c0 12.985 10.523 23.502 23.502 23.502 12.985 0 23.502-10.517 23.502-23.502l0.007-154.631h64.331c12.992 0 23.502-10.523 23.502-23.502 0.005-12.985-10.51-23.515-23.504-23.515zM416.507 434.718c0-12.985-10.523-23.502-23.502-23.502s-23.502 10.517-23.502 23.502v178.146c0 12.985 10.523 23.502 23.502 23.502s23.502-10.517 23.502-23.502v-178.146zM631.061 418.101c-0.27-0.27-0.587-0.45-0.864-0.697-0.857-0.777-1.728-1.561-2.702-2.208-0.69-0.457-1.424-0.784-2.158-1.17-0.631-0.334-1.221-0.72-1.888-0.994-0.857-0.357-1.758-0.574-2.645-0.821-0.587-0.167-1.141-0.4-1.751-0.517-1.525-0.304-3.072-0.464-4.619-0.464h-0.007c-0.080 0-0.153 0.023-0.224 0.023-1.461 0.023-2.919 0.153-4.366 0.443-0.763 0.153-1.467 0.437-2.201 0.661-0.734 0.217-1.474 0.384-2.178 0.683-0.857 0.357-1.648 0.827-2.448 1.285-0.53 0.304-1.090 0.53-1.605 0.864-2.898 1.947-5.28 4.546-7.081 7.545l-91.227 120.505v-108.514c0-12.985-10.523-23.502-23.502-23.502s-23.502 10.517-23.502 23.502v178.139c0 0.407 0.101 0.777 0.123 1.184 0.050 1.141 0.123 2.265 0.341 3.392 0.167 0.871 0.48 1.691 0.747 2.528 0.197 0.624 0.327 1.248 0.581 1.858 0.4 0.967 0.923 1.851 1.445 2.745 0.254 0.437 0.443 0.887 0.711 1.307 1.735 2.592 3.959 4.83 6.558 6.558 0.45 0.304 0.944 0.501 1.417 0.763 0.857 0.487 1.698 0.994 2.622 1.374 0.683 0.283 1.387 0.437 2.098 0.661 0.747 0.224 1.497 0.523 2.281 0.683 1.365 0.27 2.752 0.393 4.146 0.414 0.153 0.007 0.297 0.043 0.443 0.043 0.080 0 0.16-0.023 0.247-0.023 1.467-0.014 2.919-0.153 4.366-0.437 0.704-0.146 1.365-0.414 2.055-0.61 0.777-0.233 1.575-0.421 2.331-0.727 0.791-0.327 1.525-0.777 2.265-1.191 0.597-0.327 1.205-0.597 1.778-0.967 1.294-0.857 2.491-1.838 3.579-2.935 0.007 0 0.007 0 0.007 0v0c1.351-1.358 2.469-2.926 3.465-4.576l91.237-120.535 0.005 108.489c0 12.985 10.523 23.502 23.502 23.502 12.985 0 23.502-10.517 23.502-23.502v-178.066c0.007-1.584-0.153-3.159-0.464-4.706-0.101-0.523-0.313-0.994-0.45-1.497-0.27-0.981-0.507-1.954-0.894-2.891-0.261-0.631-0.631-1.184-0.937-1.794-0.4-0.747-0.747-1.525-1.227-2.245-0.624-0.937-1.374-1.778-2.121-2.608-0.283-0.315-0.501-0.658-0.791-0.955zM785.154 547.298c12.992 0 23.509-10.53 23.509-23.502s-10.517-23.502-23.509-23.502h-64.331v-42.057h64.331c12.992 0 23.509-10.523 23.509-23.502s-10.517-23.502-23.509-23.502l-87.833-0.005c-12.978 0-23.509 10.517-23.509 23.502l-0.007 178.133c0 12.985 10.53 23.502 23.509 23.502h87.831c12.992 0 23.509-10.523 23.509-23.502s-10.517-23.502-23.509-23.502h-64.331v-42.057h64.341z" />
<glyph unicode="&#xe916;" glyph-name="hatena" d="M763.707 180.846c0 0 0 0 0 0 0-55.78 45.219-100.999 100.999-100.999s100.999 45.219 100.999 100.999c0 0 0 0 0 0s0 0 0 0c0 55.78-45.219 100.999-100.999 100.999s-100.999-45.219-100.999-100.999c0 0 0 0 0 0zM772.736 840.665h183.934v-502.363h-183.934zM492.965 502.693c0 0 127.093 8.011 127.093 160.325 0 176.361-159.157 177.246-250.009 177.246-58.935 0-88.704 0-127.819 0l-183.941 0.009v-760.818h183.943c32.601 0 73.481 0 125.145 0 251.177 0 293.938 137.326 293.938 225.504s-42.761 171.010-168.35 197.735zM252.121 696.969c70.105 0 66.953 0 85.509 0 16.034 0 85.509-6.834 85.509-72.974 0-78.158-60.126-75.493-100.199-75.493-40.082 0-20.043 0-70.809 0l-0.009 148.466zM352.322 241.218c-46.77 0-65.47 0-100.206 0l-0.002 166.999c0 0 44.089 0 102.21 0 58.114 0 102.203-12.018 102.203-83.504s-57.445-83.495-104.206-83.495z" />
<glyph unicode="&#xe917;" glyph-name="x-corp" data-tags="logo_metaX-1" horiz-adv-x="1005" d="M587.422 518.887l336.096 393.113h-79.555l-292.182-341.749-236.898 341.749h-267.779l356.803-514.728-353.337-413.278h79.555l309.418 361.908 250.862-361.908h267.779l-370.773 534.887zM162.107 850.81h122.605l558.483-805.622h-122.605l-558.483 805.622z" />
<glyph unicode="&#xe918;" glyph-name="thumb-up" data-tags="iconmonstr-thumb-10" d="M913.323 552.192c-51.627 2.176-122.453 11.861-169.685 31.744 34.517 140.075 53.461 376.064-93.696 376.064-79.403 0-100.309-71.168-120.875-142.037-66.048-227.669-168.363-290.816-273.067-315.776v31.147h-256v-512h256v38.571c101.461-9.728 175.744-36.864 263.211-74.496 53.632-23.083 130.261-49.408 227.669-49.408 108.288 0 183.253 42.539 213.717 157.269 21.333 80.085 63.403 309.333 63.403 352 0 70.315-49.835 104.363-110.677 106.923zM170.667 106.667h-85.333v341.333h85.333v-341.333zM848.896 344.875s8.576-0.427 45.611 1.152c46.165 1.963 44.843-62.677 0.171-66.688l-75.136-4.224c-31.317-4.011-27.989-51.328 6.016-50.005 0 0 29.269 0.725 48.768 1.749 45.568 2.389 43.349-60.971 1.707-66.176-18.091-2.261-74.453-4.907-74.453-4.907-34.603-3.072-30.123-52.693 4.651-48.683l32.896 1.323c35.072 3.157 42.795-35.2-12.459-70.869-66.859-37.589-199.893-5.589-273.749 26.197-95.531 41.173-189.355 82.517-296.917 85.589v256c139.264 31.957 269.995 96.171 355.029 388.821 38.315 131.925 71.637 82.389 71.637-24.491 0-88.363-20.907-161.536-39.296-236.075 45.269-23.168 143.829-59.819 261.12-66.389 45.013-2.517 43.691-62.080-2.176-67.584l-59.477-7.125s-25.941-47.403 6.059-47.616z" />
<glyph unicode="&#xe919;" glyph-name="facebook" data-tags="facebook, social" d="M575.87-64h-191.87v512h-128v176.45l128 0.058-0.208 103.952c0 143.952 39.034 231.54 208.598 231.54h141.176v-176.484h-88.23c-66.032 0-69.206-24.656-69.206-70.684l-0.262-88.324h158.69l-18.704-176.45-139.854-0.058-0.13-512z" />
<glyph unicode="&#xe91a;" glyph-name="thumb-down" data-tags="iconmonstr-thumb-12" d="M1024 450.731c0 42.667-42.069 271.915-63.403 352-30.464 114.731-105.429 157.269-213.717 157.269-97.408 0-174.037-26.325-227.669-49.408-87.467-37.675-161.749-64.811-263.211-74.496v38.571h-256v-512h256v31.147c104.704-24.96 207.019-88.149 273.067-315.819 20.608-70.827 41.472-141.995 120.875-141.995 147.115 0 128.213 235.989 93.696 376.064 47.189 19.883 118.059 29.525 169.685 31.744 60.843 2.56 110.677 36.608 110.677 106.923zM170.667 448h-85.333v341.333h85.333v-341.333zM842.88 503.552l59.477-7.125c45.867-5.504 47.147-65.067 2.176-67.584-117.291-6.571-215.893-43.221-261.12-66.389 18.347-74.581 39.253-147.755 39.253-236.117 0-106.88-33.323-156.416-71.637-24.491-85.035 292.651-215.765 356.864-355.029 388.821v256c107.563 3.072 201.387 44.416 296.917 85.547 73.856 31.787 206.891 63.787 273.749 26.197 55.253-35.669 47.531-73.984 12.459-70.869l-32.896 1.365c-34.773 4.011-39.253-45.568-4.651-48.683 0 0 56.363-2.645 74.453-4.907 41.643-5.248 43.861-68.565-1.707-66.176-19.499 1.024-48.768 1.749-48.768 1.749-34.005 1.323-37.333-45.995-6.016-50.005 0 0 30.464-0.213 75.136-4.224s45.995-68.651-0.171-66.688c-37.035 1.579-45.611 1.152-45.611 1.152-32-0.213-37.333-43.861-6.016-47.573z" />
<glyph unicode="&#xe91b;" glyph-name="triangle" data-tags="iconmonstr-triangle-2" d="M512 708.821l361.301-602.155h-722.603l361.301 602.155zM512 874.667l-512-853.333h1024l-512 853.333z" />
<glyph unicode="&#xe91c;" glyph-name="twitter" data-tags="twitter, tweet, social" d="M1024 765.582c-37.676-16.708-78.164-28.002-120.66-33.080 43.372 26 76.686 67.17 92.372 116.23-40.596-24.078-85.556-41.56-133.41-50.98-38.32 40.83-92.922 66.34-153.346 66.34-116.022 0-210.088-94.058-210.088-210.078 0-16.466 1.858-32.5 5.44-47.878-174.6 8.764-329.402 92.4-433.018 219.506-18.084-31.028-28.446-67.116-28.446-105.618 0-72.888 37.088-137.192 93.46-174.866-34.438 1.092-66.832 10.542-95.154 26.278-0.020-0.876-0.020-1.756-0.020-2.642 0-101.788 72.418-186.696 168.522-206-17.626-4.8-36.188-7.372-55.348-7.372-13.538 0-26.698 1.32-39.528 3.772 26.736-83.46 104.32-144.206 196.252-145.896-71.9-56.35-162.486-89.934-260.916-89.934-16.958 0-33.68 0.994-50.116 2.94 92.972-59.61 203.402-94.394 322.042-94.394 386.422 0 597.736 320.124 597.736 597.744 0 9.108-0.206 18.168-0.61 27.18 41.056 29.62 76.672 66.62 104.836 108.748z" />
<glyph unicode="&#xe91d;" glyph-name="user-man" data-tags="iconmonstr-user-1" d="M888.405 187.904c-146.731 33.877-283.307 63.573-217.173 188.501 201.387 380.245 53.376 583.595-159.232 583.595-216.832 0-361.131-211.157-159.232-583.595 68.139-125.653-73.6-155.349-217.173-188.501-131.115-30.293-136.021-95.403-135.595-209.237l0.171-42.667h1023.573l0.171 41.344c0.512 114.688-3.925 180.139-135.509 210.56z" />
<glyph unicode="&#xe91e;" glyph-name="user-women" data-tags="iconmonstr-user-3" d="M888.405 136.235c-126.592 29.056-280.661 103.979-235.264 201.515 29.184-48.043 119.509-75.819 189.867-34.304-202.539 51.371 99.584 404.096-165.163 601.813-48.427 36.395-107.776 54.741-166.912 54.741-58.795 0-117.376-18.133-164.779-54.741-264.789-197.717 37.376-550.443-165.205-601.813 70.357-41.557 160.853-12.501 189.909 34.304 45.397-97.536-108.843-172.501-235.264-201.515-127.061-29.099-135.595-105.216-135.595-170.837l0.213-29.397h1023.573l0.213 29.483c0 65.579-8.533 141.653-135.595 170.752z" />
<glyph unicode="&#xe91f;" glyph-name="youtube" data-tags="youtube, social" d="M832 832h-640c-105.6 0-192-86.4-192-192v-384c0-105.6 86.4-192 192-192h640c105.6 0 192 86.4 192 192v384c0 105.6-86.4 192-192 192zM384 192v512l320-256-320-256z" />
<glyph unicode="&#xe920;" glyph-name="flickr2" data-tags="flickr, social" d="M800 544c-70.58 0-128-57.42-128-128s57.42-128 128-128c70.58 0 128 57.42 128 128s-57.42 128-128 128zM800 640v0c123.71 0 224-100.288 224-224 0-123.71-100.29-224-224-224s-224 100.29-224 224c0 123.712 100.29 224 224 224zM0 416c0 123.712 100.288 224 224 224s224-100.288 224-224c0-123.712-100.288-224-224-224s-224 100.288-224 224z" />
<glyph unicode="&#xe921;" glyph-name="warning" data-tags="iconmonstr-warning-6" d="M512 874.667c235.264 0 426.667-191.403 426.667-426.667s-191.403-426.667-426.667-426.667-426.667 191.403-426.667 426.667 191.403 426.667 426.667 426.667zM512 960c-282.752 0-512-229.248-512-512s229.248-512 512-512 512 229.248 512 512-229.248 512-512 512zM456.107 638.891c-4.224 34.432 22.528 65.109 57.515 65.109 32.896 0 58.752-28.843 54.613-61.909l-32.299-258.261c-1.493-12.075-11.776-21.163-23.936-21.163s-22.443 9.088-23.979 21.163l-31.915 255.061zM512 181.333c-29.44 0-53.333 23.893-53.333 53.333s23.893 53.333 53.333 53.333 53.333-23.893 53.333-53.333-23.893-53.333-53.333-53.333z" />
<glyph unicode="&#xe922;" glyph-name="cross" data-tags="iconmonstr-x-mark-9" d="M941.333 129.199l-319.464 319.542 319.464 319.034-110.532 109.56-319.349-319.231-319.113 319.231-109.673-109.673 319.504-319.893-319.504-319.424 109.673-109.673 320.165 319.735 319.268-319.735z" />
<glyph unicode="&#xe923;" glyph-name="bluesky" data-tags="bluesky" horiz-adv-x="1150" d="M249.227 891.644c131.809-99.292 273.606-300.589 325.65-408.612v-285.319c0 6.072-2.335-0.79-7.366-15.576-27.163-80.052-133.264-392.479-375.88-142.713-127.748 131.503-68.608 263.006 163.93 302.709-133.030-22.708-282.588 14.821-323.62 161.954-11.821 42.325-31.942 303.032-31.942 338.243 0 176.38 154.121 120.94 249.227 49.314zM900.527 891.644c-131.809-99.292-273.606-300.589-325.65-408.612v-285.319c0 6.072 2.335-0.79 7.366-15.576 27.163-80.052 133.264-392.479 375.88-142.713 127.748 131.503 68.608 263.006-163.93 302.709 133.030-22.708 282.588 14.821 323.62 161.954 11.821 42.325 31.942 303.032 31.942 338.243 0 176.38-154.103 120.94-249.227 49.314z" />
<glyph unicode="&#xe924;" glyph-name="misskey" data-tags="misskey_mi_bi" d="M124.948 806.857c-14.951 0-29.191-2.493-42.717-7.476-24.206-8.543-44.141-23.85-59.804-45.921-14.951-21.358-22.425-45.207-22.425-71.549v-467.743c0-34.173 12.102-63.717 36.308-88.635 24.918-24.206 54.465-36.311 88.635-36.311 34.885 0 64.429 12.106 88.635 36.311 24.918 24.918 37.378 54.462 37.378 88.635v85.060c0.269 18.422 19.245 13.589 28.836 0 17.962-31.107 56.043-57.823 100.382-57.67 44.337 0.153 81.16 22.073 100.382 57.67 7.279 8.585 27.797 23.213 29.901 0v-85.060c0-34.173 12.102-63.717 36.308-88.635 24.918-24.206 54.465-36.311 88.635-36.311 34.885 0 64.429 12.106 88.635 36.311 24.918 24.918 37.378 54.462 37.378 88.635v467.743c0 26.342-7.829 50.191-23.491 71.549-14.951 22.070-34.531 37.377-58.737 45.921-14.239 4.984-28.479 7.476-42.717 7.476-38.444 0-70.836-14.953-97.177-44.854l-126.8-148.396c-2.848-2.136-12.282-18.465-32.319-18.465s-28.402 16.329-31.249 18.465l-127.866 148.396c-25.63 29.901-57.666 44.854-96.111 44.854zM915.077 806.857c-29.901 0-55.53-10.68-76.889-32.038-20.646-20.646-30.968-45.921-30.968-75.823s10.322-55.53 30.968-76.889c21.358-20.646 46.987-30.972 76.889-30.972s55.53 10.325 76.889 30.972c21.358 21.358 32.038 46.987 32.038 76.889s-10.68 55.176-32.038 75.823c-21.358 21.358-46.987 32.038-76.889 32.038zM916.143 569.781c-29.901 0-55.53-10.68-76.889-32.038s-32.034-46.987-32.034-76.889v-263.774c0-29.901 10.676-55.53 32.034-76.889 21.358-20.646 46.987-30.972 76.889-30.972s55.176 10.325 75.823 30.972c21.358 21.358 32.038 46.987 32.038 76.889v263.774c0 29.901-10.68 55.53-32.038 76.889-20.646 21.358-45.921 32.038-75.823 32.038z" />
<glyph unicode="&#xe925;" glyph-name="bluesky-logo" data-tags="bluesky" horiz-adv-x="1150" d="M321.075 793.798c102.742-77.396 213.266-234.299 253.83-318.494v-222.389c0 4.728-1.817-0.618-5.742-12.146-21.171-62.398-103.878-305.917-292.985-111.241-99.575 102.495-53.474 205.004 127.778 235.943-103.686-17.696-220.26 11.553-252.248 126.24-9.217 32.987-24.9 236.196-24.9 263.646 0 137.476 120.129 94.27 194.263 38.436zM828.735 793.798c-102.742-77.396-213.266-234.299-253.83-318.494v-222.389c0 4.728 1.817-0.618 5.742-12.146 21.171-62.398 103.878-305.917 292.985-111.241 99.575 102.495 53.474 205.004-127.778 235.943 103.686-17.696 220.26 11.553 252.248 126.24 9.217 32.987 24.9 236.196 24.9 263.646 0 137.476-120.111 94.27-194.263 38.436z" />
<glyph unicode="&#xe926;" glyph-name="misskey-logo" data-tags="misskey" d="M176.722 758.855c-12.953 0-25.285-2.157-37.005-6.474-20.966-7.402-38.237-20.658-51.806-39.777-12.953-18.502-19.425-39.159-19.425-61.979v-405.175c0-29.601 10.482-55.193 31.453-76.779 21.584-20.966 47.181-31.453 76.779-31.453 30.217 0 55.813 10.486 76.779 31.453 21.584 21.584 32.38 47.178 32.38 76.779v73.684c0.233 15.956 16.671 11.771 24.978 0 15.562-26.946 48.549-50.089 86.954-49.954s70.306 19.121 86.954 49.954c6.307 7.439 24.077 20.108 25.899 0v-73.684c0-29.601 10.482-55.193 31.453-76.779 21.584-20.966 47.181-31.453 76.779-31.453 30.217 0 55.813 10.486 76.779 31.453 21.584 21.584 32.38 47.178 32.38 76.779v405.175c0 22.82-6.78 43.477-20.347 61.979-12.953 19.118-29.911 32.379-50.881 39.777-12.337 4.318-24.669 6.474-37.005 6.474-33.302 0-61.362-12.955-84.179-38.854l-109.838-128.548c-2.467-1.848-10.638-15.993-27.995-15.993s-24.604 14.145-27.067 15.993l-110.76 128.548c-22.204 25.899-49.95 38.854-83.253 38.854zM861.161 758.855c-25.899 0-48.102-9.252-66.605-27.754-17.886-17.886-26.828-39.777-26.828-65.683s8.942-48.102 26.828-66.605c18.502-17.886 40.701-26.83 66.605-26.83s48.102 8.945 66.605 26.83c18.502 18.502 27.754 40.701 27.754 66.605s-9.252 47.796-27.754 65.683c-18.502 18.502-40.701 27.754-66.605 27.754zM862.083 553.491c-25.899 0-48.102-9.252-66.605-27.754s-27.75-40.701-27.75-66.605v-228.49c0-25.899 9.248-48.102 27.75-66.605 18.502-17.886 40.701-26.83 66.605-26.83s47.796 8.945 65.683 26.83c18.502 18.502 27.754 40.701 27.754 66.605v228.49c0 25.899-9.252 48.102-27.754 66.605-17.886 18.502-39.777 27.754-65.683 27.754z" />
<glyph unicode="&#xe927;" glyph-name="mastodon-logo" data-tags="mastodon" d="M677.88 229.86c104.832 12.48 196.040 76.7 207.48 135.356 18.096 92.456 16.64 225.628 16.64 225.628 0 180.44-118.872 233.376-118.872 233.376-59.904 27.404-162.812 38.896-269.724 39.78h-2.6c-106.964-0.884-209.82-12.376-269.724-39.78 0 0-118.82-52.884-118.82-233.376l-0.104-34.424c-0.208-33.28-0.364-70.2 0.572-108.732 4.316-176.488 32.552-350.48 196.56-393.64 75.608-19.916 140.556-24.076 192.868-21.216 94.796 5.2 148.044 33.644 148.044 33.644l-3.12 68.484s-67.756-21.32-143.884-18.72c-75.4 2.6-154.96 8.112-167.18 100.256-1.093 7.618-1.717 16.406-1.717 25.346 0 0.159 0 0.317 0.001 0.476v-0.026s74.048-17.992 167.856-22.256c57.356-2.6 111.124 3.328 165.776 9.828zM761.756 358.3h-86.996v212.16c0 44.668-18.928 67.34-56.732 67.34-41.808 0-62.764-26.884-62.764-80.132v-116.116h-86.528v116.168c0 53.248-20.956 80.132-62.764 80.132-37.804 0-56.732-22.672-56.732-67.392v-212.108h-86.996v218.504c0 44.668 11.44 80.132 34.32 106.392 23.712 26.26 54.704 39.728 93.236 39.728 44.512 0 78.208-17.056 100.516-51.116l21.684-36.14 21.684 36.14c22.308 34.060 56.004 51.116 100.568 51.116 38.48 0 69.472-13.468 93.132-39.728 22.984-26.26 34.372-61.724 34.372-106.392v-218.556z" />
<glyph unicode="&#xe928;" glyph-name="mastodon" data-tags="mastodon" d="M716.16 179.52c129.024 15.36 241.28 94.4 255.36 166.592 22.272 113.792 20.48 277.696 20.48 277.696 0 222.080-146.304 287.232-146.304 287.232-73.728 33.728-200.384 47.872-331.968 48.96h-3.2c-131.648-1.088-258.24-15.232-331.968-48.96 0 0-146.24-65.088-146.24-287.232l-0.128-42.368c-0.256-40.96-0.448-86.4 0.704-133.824 5.312-217.216 40.064-431.36 241.92-484.48 93.056-24.512 172.992-29.632 237.376-26.112 116.672 6.4 182.208 41.408 182.208 41.408l-3.84 84.288s-83.392-26.24-177.088-23.040c-92.8 3.2-190.72 9.984-205.76 123.392-1.345 9.37-2.113 20.19-2.113 31.19 0 0.195 0 0.389 0.001 0.584v-0.030s91.136-22.144 206.592-27.392c70.592-3.2 136.768 4.096 204.032 12.096zM819.392 337.6h-107.072v261.12c0 54.976-23.296 82.88-69.824 82.88-51.456 0-77.248-33.088-77.248-98.624v-142.912h-106.496v142.976c0 65.536-25.792 98.624-77.248 98.624-46.528 0-69.824-27.904-69.824-82.944v-261.056h-107.072v268.928c0 54.976 14.080 98.624 42.24 130.944 29.184 32.32 67.328 48.896 114.752 48.896 54.784 0 96.256-20.992 123.712-62.912l26.688-44.48 26.688 44.48c27.456 41.92 68.928 62.912 123.776 62.912 47.36 0 85.504-16.576 114.624-48.896 28.288-32.32 42.304-75.968 42.304-130.944v-268.992z" />
<glyph unicode="&#xe92b;" glyph-name="delicious" data-tags="delicious, social" d="M853.376 960h-682.69c-93.876 0-170.686-76.816-170.686-170.692v-682.624c0-93.93 76.81-170.684 170.686-170.684h682.69c93.874 0 170.624 76.752 170.624 170.684v682.624c0 93.876-76.75 170.692-170.624 170.692zM960 106.684c0-28.334-11.14-55.082-31.37-75.316-20.222-20.228-46.948-31.368-75.254-31.368h-341.376v448h-448v341.308c0 28.308 11.15 55.050 31.396 75.296 20.244 20.246 46.984 31.396 75.29 31.396h341.314v-448h448v-341.316z" />
<glyph unicode="&#xe92c;" glyph-name="pinterest" data-tags="pinterest, social" d="M512 960c-282.77 0-512-229.23-512-512s229.226-512 512-512c282.77 0 512 229.23 512 512s-229.23 512-512 512zM561.644 275.882c-46.52 3.614-66.042 26.656-102.504 48.808-20.060-105.176-44.564-206.016-117.14-258.686-22.404 158.968 32.894 278.364 58.57 405.114-43.784 73.706 5.27 222.034 97.62 185.474 113.626-44.948-98.4-274.008 43.932-302.616 148.62-29.868 209.288 257.858 117.142 351.424-133.158 135.106-387.598 3.080-356.31-190.356 7.614-47.292 56.472-61.638 19.524-126.902-85.22 18.892-110.65 86.102-107.376 175.712 5.268 146.674 131.784 249.364 258.686 263.566 160.484 17.964 311.106-58.908 331.906-209.876 23.412-170.39-72.448-354.93-244.050-341.662z" />
<glyph unicode="&#xe92d;" glyph-name="facebook-logo" data-tags="facebook-logo" d="M575.304 39.16v372.98h125.195l18.744 145.359h-143.937v92.806c0 42.084 11.686 70.764 72.039 70.764l76.974 0.037v130.008c-13.321 1.769-59.007 5.727-112.164 5.727-110.978 0-186.958-67.738-186.958-192.144v-107.196h-125.516v-145.359h125.516v-372.98h150.109z" />
<glyph unicode="&#xe92e;" glyph-name="feedly-logo" data-tags="feedly-logo" d="M534.409 243.252l46.642-46.567c5.165-5.138 5.165-13.476 0-18.614l-34.595-34.258c-2.243-2.261-4.402-2.322-5.742-2.322h-30.515c-1.193 0-3.414 0.032-5.642 2.241l-35.060 34.733c-5.157 5.138-5.157 13.477 0 18.615l46.26 46.172c5.155 5.138 13.51 5.138 18.648 0zM534.802 434.537l46.65-46.567c5.157-5.138 5.157-13.476 0-18.614l-130.599-130.306c-2.27-2.27-4.417-2.332-5.765-2.332h-30.488c-1.22 0-3.433 0.034-5.654 2.255l-35.052 34.938c-5.157 5.138-5.157 13.478 0 18.614l142.257 142.013c5.157 5.138 13.491 5.138 18.648 0zM534.802 625.428l46.65-46.567c5.157-5.138 5.157-13.476 0-18.614l-226.229-225.967c-2.243-2.26-4.402-2.332-5.75-2.332h-30.503c-1.193 0-3.414 0.034-5.643 2.255l-35.059 35.156c-5.157 5.138-5.157 13.476 0 18.614l237.887 237.458c5.157 5.138 13.491 5.138 18.648 0zM593.11 760.448c-37.35 37.281-97.917 37.281-135.267 0l-314.841-314.285c-37.351-37.273-37.351-97.728 0-135.019l226.993-227.129c9.525-9.499 33.038-21.345 50.348-21.345h208.722c13.019 0 40.422 9.9 52.658 22.123l226.224 226.352c37.35 37.288 37.35 97.747 0 135.019l-314.841 314.285z" />
<glyph unicode="&#xe92f;" glyph-name="flickr-logo" data-tags="flickr-logo" d="M371.545 575.773h-90.514c107.555 0 194.746-87.191 194.746-194.746v90.665c0-107.555-87.191-194.746-194.746-194.746h90.514c-107.555 0-194.746 87.191-194.746 194.746v-90.665c0 107.555 87.191 194.746 194.746 194.746zM768.934 575.773h-90.514c107.555 0 194.746-87.191 194.746-194.746v90.665c0-107.555-87.191-194.746-194.746-194.746h90.514c-107.555 0-194.746 87.191-194.746 194.746v-90.665c0 107.555 87.191 194.746 194.746 194.746z" />
<glyph unicode="&#xe930;" glyph-name="google-plus-logo" data-tags="google-plus-logo" d="M382.535 462.958v-85.052h140.689c-5.67-36.501-42.526-107.023-140.689-107.023-84.697 0-153.801 70.167-153.801 156.637s69.104 156.637 153.801 156.637c48.196 0 80.445-20.554 98.872-38.273l67.332 64.852c-43.235 40.399-99.227 64.852-166.205 64.852-137.146 0-248.067-110.921-248.067-248.067s110.921-248.067 248.067-248.067c143.17 0 238.144 100.644 238.144 242.397 0 16.302-1.772 28.705-3.898 41.108h-234.246zM914.107 462.958h-70.876v70.876h-70.876v-70.876h-70.876v-70.876h70.876v-70.876h70.876v70.876h70.876z" />
<glyph unicode="&#xe931;" glyph-name="hatebu-logo" data-tags="hatebu-logo" d="M753.806 732.352h141.175v-416.875h-141.175v416.875zM907.955 188.635c0-45.065-36.686-81.595-81.943-81.595s-81.943 36.53-81.943 81.595c0 45.065 36.686 81.595 81.943 81.595s81.943-36.53 81.943-81.595zM151.792 733.971v-626.933h160.651v0.303c34.2-0.147 73.626-0.303 132.251-0.303 109.777 0 198.771 73.818 198.771 172.082 0 70.952-22.25 113.966-58.222 139.256-21.113 14.842-46.977 23.537-75.817 28.213 20.297 2.536 38.69 8.040 54.002 19.647 35.972 27.279 52.544 63.842 52.544 107.453 0 62.971-20.62 101.149-56.592 123.593s-82.418 35.609-137.311 35.609c-46.291 0-80.41 0.126-109.633 0.272v0.81zM312.435 593.393l77.075 0.812c0 0 65.72-0.815 65.72-67.869 0-52.512-64.099-54.127-64.099-54.127h-78.696zM312.435 357.486h96.384c0 0 71.565-0.001 71.565-74.212 0-58.114-75.392-59.907-75.392-59.907h-92.558z" />
<glyph unicode="&#xe935;" glyph-name="line-logo" data-tags="line-logo" d="M759.412 494.509c11.035 0 20.016-9.001 20.016-20.090 0-11.057-8.981-20.078-20.016-20.078h-55.813v-35.935h55.813c11.035 0 20.016-9.016 20.016-20.084 0-11.083-8.981-20.099-20.016-20.099h-75.83c-11.015 0-19.996 9.016-19.996 20.099v152.213c0 11.083 8.961 20.099 19.996 20.099h75.83c11.035 0 20.016-9.016 20.016-20.099 0-11.066-8.981-20.073-20.016-20.073h-55.813v-35.953h55.813zM636.71 398.321c0-8.663-5.474-16.331-13.675-19.046-2.054-0.697-4.201-1.050-6.359-1.050-6.238 0-12.211 3.013-15.98 8.033l-77.7 106.221v-94.158c0-11.083-8.969-20.099-20.022-20.099-11.030 0-19.996 9.016-19.996 20.099v152.213c0 8.663 5.492 16.325 13.654 19.066 2.072 0.691 4.218 1.032 6.359 1.032 6.25 0 12.24-3.007 15.994-8.038l77.711-106.221v94.164c0 11.083 8.981 20.099 20.016 20.099s19.996-9.016 19.996-20.099v-152.213zM454.198 398.321c0-11.083-8.969-20.099-20.002-20.099s-19.996 9.016-19.996 20.099v152.213c0 11.083 8.961 20.099 19.996 20.099s20.002-9.016 20.002-20.099v-152.213zM375.778 378.225h-75.83c-11.035 0-19.996 9.016-19.996 20.099v152.213c0 11.083 8.961 20.099 19.996 20.099s20.016-9.016 20.016-20.099v-132.129h55.813c11.035 0 19.996-9.016 19.996-20.084 0-11.083-8.961-20.099-19.996-20.099zM906.765 480.216c0 171.383-171.194 310.842-381.609 310.842-210.42 0-381.614-139.459-381.614-310.842 0-153.664 135.752-282.361 319.157-306.704 12.413-2.686 29.329-8.229 33.604-18.881 3.858-9.692 2.536-24.838 1.236-34.637 0 0-4.466-27.029-5.437-32.792-1.668-9.686-7.69-37.867 33.057-20.648 40.719 17.207 219.753 129.894 299.812 222.409l-0.017-0.006c55.315 60.871 81.814 122.65 81.814 191.259z" />
<glyph unicode="&#xe936;" glyph-name="pinterest-logo" data-tags="pinterest-logo" d="M476.561 293.985c-20.093-105.301-44.588-206.244-117.262-258.977-22.4 159.161 32.944 278.661 58.669 405.55-43.84 73.757 5.265 222.269 97.692 185.674 113.742-44.997-98.513-274.284 43.986-302.963 148.779-29.875 209.505 258.155 117.263 351.813-133.275 135.253-387.999 3.1-356.67-190.567 7.617-47.311 56.507-61.686 19.531-127.043-85.322 18.929-110.753 86.223-107.511 175.92 5.306 146.805 131.937 249.612 258.981 263.834 160.652 18.004 311.439-58.967 332.243-210.098 23.448-170.576-72.482-355.322-244.305-342.024-46.567 3.623-66.098 26.701-102.617 48.876z" />
<glyph unicode="&#xe937;" glyph-name="push7-logo" data-tags="push7-logo" d="M559.051 375.357l-92.738-342.039 266.664 469.578h-255.076l75.375 318.827-237.677-446.365z" />
<glyph unicode="&#xe938;" glyph-name="rss-logo" data-tags="rss-logo" d="M364.146 175.373c0-50.5-40.944-91.431-91.432-91.431-50.478 0-91.425 40.931-91.425 91.431s40.947 91.428 91.425 91.428c50.488 0 91.432-40.928 91.432-91.428zM181.395 405.873c85.682 0 166.194-33.49 226.718-94.306 60.613-60.897 93.994-141.959 93.994-228.266h132c0 250.65-203.088 454.572-452.713 454.572v-132zM181.589 639.873c305.31 0 553.697-249.744 553.697-556.71h132.002c0 379.757-307.605 688.714-685.698 688.714v-132.004z" />
<glyph unicode="&#xe939;" glyph-name="twitter-logo" data-tags="twitter-logo" d="M912.934 664.487c-28.466-12.624-59.061-21.156-91.171-24.995 32.775 19.647 57.941 50.752 69.795 87.824-30.667-18.192-64.642-31.402-100.799-38.522-28.958 30.85-70.208 50.126-115.864 50.126-87.668 0-158.74-71.069-158.74-158.732 0-12.443 1.408-24.557 4.114-36.172-131.926 6.617-248.888 69.812-327.179 165.849-13.665-23.446-21.49-50.707-21.49-79.801 0-55.069 28.023-103.655 70.616-132.122-26.019 0.824-50.496 7.966-71.896 19.852-0.010-0.663-0.012-1.326-0.012-1.996 0-76.91 54.715-141.064 127.332-155.646-13.32-3.626-27.345-5.568-41.819-5.568-10.228 0-20.171 0.991-29.865 2.845 20.2-63.066 78.822-108.955 148.281-110.238-54.324-42.571-122.771-67.95-197.138-67.95-12.813 0-25.451 0.749-37.864 2.214 70.246-45.037 153.683-71.316 243.325-71.316 291.971 0 451.631 241.875 451.631 451.637 0 6.882-0.153 13.727-0.46 20.532 31.011 22.378 57.926 50.339 79.205 82.171z" />
<glyph unicode="&#xe93a;" glyph-name="youtube-logo" data-tags="youtube-logo" d="M525.777 502.582c0 0-145.509-0.002-242.509-6.982-13.552-1.609-43.090-1.743-69.452-29.23-20.786-20.941-27.553-68.493-27.553-68.493s-6.931-55.842-6.931-111.686v-52.354c0-55.839 6.931-111.68 6.931-111.68s6.767-47.55 27.553-68.493c26.361-27.492 61.005-26.611 76.43-29.493 55.458-5.299 235.679-6.938 235.679-6.938s145.658 0.219 242.658 7.195c13.548 1.614 43.1 1.744 69.455 29.236 20.784 20.943 27.556 68.493 27.556 68.493s6.925 55.841 6.925 111.68v52.354c0 55.845-6.925 111.686-6.925 111.686s-6.773 47.552-27.556 68.493c-26.355 27.48-55.907 27.62-69.455 29.23-97 6.98-242.502 6.982-242.502 6.982h-0.305zM382.654 420.881v-44.108h-51.068v-266.96h-46.426v266.96h-48.75v44.060l146.25 0.048zM533.546 420.881h41.784l-0.048-101.418c13.573 16.705 28.943 26.216 44.406 26.216 16.732 0 27.981-9.67 33.589-27.045 2.806-9.329 5.62-24.351 5.62-46.321v-92.858c0-21.453-1.836-36.592-4.642-46.426-5.608-17.25-17.835-26.204-34.573-26.204-14.941 0-30.257 8.996-44.302 26.369l-0.057-23.375h-41.784v311.068zM751.238 345.311c21.084 0 37.818-8.403 49.604-24.28 8.784-11.731 13.666-29.867 13.666-54.662l0.010-47.461h-83.654v-41.686c-0.145-21.419 5.95-32.205 20.374-32.205 10.346 0 16.383 5.623 18.78 16.86 0.392 2.291 0.314 12.317 0.314 29.179h44.105v-6.579c0-13.544-1.113-23.126-1.489-27.337-1.419-9.316-4.722-17.742-9.83-25.178-11.624-16.846-28.875-25.15-50.833-25.15-21.989 0-38.718 7.909-50.865 23.759-8.927 11.608-14.659 28.867-14.659 53.513v81.25c0 24.795 5.209 43.96 14.142 55.691 12.157 15.876 28.887 24.28 50.341 24.28zM375.689 341.949h44.108v-188.034c1.027-6.517 3.8-8.896 9.408-8.896 8.445 0 16.083 7.334 25.416 20.498v176.426h44.108v-232.137h-44.108v25.534c-16.72-19.164-30.891-28.842-46.346-28.842-13.556 0-22.972 6.397-27.684 17.946-2.863 7.027-4.896 17.994-4.896 34.113v183.392zM597.2 306.982c-6.921 0-14.843-3.653-21.87-10.589l-0.048-140.78c7.029-7.028 14.997-10.589 21.918-10.589 12.121 0 17.59 8.896 17.59 32.106v99.818c0 23.216-5.469 30.027-17.59 30.027zM750.848 306.982c-14.032 0-19.984-5.914-19.984-27.61v-25.678l39.466 0.044v25.34c0 21.456-5.546 27.902-19.476 27.902zM742.98 518.954h-44.108v25.534c-16.72-19.164-30.893-28.844-46.348-28.844-13.556 0-22.971 6.398-27.682 17.947-2.863 7.027-4.895 17.994-4.895 34.113v185.71h44.108v-174.102c0-9.845 0-13.926 0-16.25 1.027-6.517 3.792-8.898 9.406-8.898 8.445 0 16.085 7.336 25.418 20.5v178.748h44.108v-234.46zM543.338 588.596c2.324-23.216-4.88-34.734-18.577-34.734s-20.889 11.518-18.565 34.734v92.858c-2.324 23.216 4.877 34.093 18.574 34.093s20.918-10.883 18.594-34.093l-0.020-92.858zM587.446 676.806c0 25.056-5.034 43.869-13.926 55.716-11.753 16.038-30.176 22.603-48.75 22.603-21.023 0-37.019-6.566-48.75-22.603-9.035-11.841-13.887-30.864-13.887-55.92l-0.045-83.364c0-24.915 4.314-42.131 13.349-53.857 11.731-15.989 30.759-24.458 49.327-24.458s37.926 8.469 49.677 24.458c8.898 11.726 12.999 28.942 12.999 53.857v83.568zM413.339 646.63v-127.676h-46.426v127.676c0 0-48.108 156.532-58.034 185.71h48.75l32.577-122.28 32.417 122.28h48.75l-58.034-185.71z" />
<glyph unicode="&#xe93b;" glyph-name="amp-logo" data-tags="amp" d="M485.127-29.952c-118.244 7.551-226.118 54.905-308.573 135.458-71.743 70.091-119.219 158.448-136.755 254.511-6.173 33.815-7.338 47.944-7.307 88.458 0.034 41.972 1.775 60.405 9.121 96.523 23.77 116.876 92.935 222.536 191.54 292.611 90.112 64.038 200.683 95.124 311.356 87.533 150.917-10.352 285.119-88.402 369.134-214.684 41.57-62.483 66.819-132.973 76.266-212.899 2.122-17.959 2.122-81.437 0-99.393-13.659-115.556-61.246-213.268-142.531-292.661-34.523-33.716-70.871-59.849-114.762-82.509-52.946-27.333-107.987-43.957-167.568-50.611-17.054-1.905-64.827-3.304-79.925-2.339zM576.606 327.617c73.612 122.022 102.324 170.629 102.756 173.941 0.677 5.187-2.557 11.061-8.547 15.524-3.369 2.51-4.757 2.575-63.148 2.917-45.813 0.269-59.701 0.696-59.699 1.84 0.003 1.704 35.001 208.64 35.998 212.856l0.654 2.762h-36.104l-100.388-166.769c-55.212-91.724-101.254-168.99-102.317-171.707-3.688-9.444 1.495-19.43 11.543-22.236 2.805-0.784 26.134-1.267 61.369-1.272l56.844-0.009-17.425-105.223c-9.584-57.872-17.716-106.743-18.073-108.598l-0.648-3.376h35.020l102.158 169.343z" />
<glyph unicode="&#xe93c;" glyph-name="amp-logo2" data-tags="amp-logo2" d="M482.125-29.531c-10.9 0.447-19.818 1.301-19.818 1.903 0 1.907 15.261 33.811 51.667 108.013 19.447 39.637 43.214 88.28 52.818 108.098 24.094 49.723 59.030 121.34 117.774 241.421 27.47 56.151 49.832 104.158 49.688 106.682s-1.663 5.478-3.382 6.568c-1.716 1.090-41.353 1.999-88.082 2.017l-84.958 0.034 1.293 6.607c0.712 3.632 16.243 86.328 34.509 183.763 24.757 132.049 34.053 177.157 36.502 177.16 8.745 0.013 66.798-21.662 93.733-34.992 148.172-73.334 245.097-212.169 264.74-379.2 3.882-33.017 1.532-98.532-4.795-133.728-17.842-99.219-64.206-186.61-136.893-258.010-81.976-80.525-186.103-127.321-301.882-135.67-18.422-1.329-35.657-2.204-38.3-1.945-2.643 0.257-13.723 0.831-24.624 1.278zM376.866-10.914c-45.528 13.47-87.597 33.017-126.023 58.567-59.539 39.585-98.974 78.734-137.727 136.741-70.027 104.813-95.331 234.683-70.055 359.534 25.801 127.425 106 242.102 217.935 311.622 58.434 36.292 131.892 61.738 199.415 69.075 25.247 2.743 79.668 3.017 99.46 0.497l12.289-1.565-13.524-27.625c-7.439-15.193-26.411-54.109-42.161-86.478s-42.072-86.418-58.497-120.109c-16.425-33.69-37.174-76.39-46.114-94.887s-27.056-55.791-40.26-82.876c-68.359-140.213-75.238-155.058-74.556-160.892l0.707-6.060 87.078-0.629c47.894-0.346 87.078-1.205 87.078-1.905 0-1.971-64.918-347.469-66.439-353.589-1.654-6.665-4.29-6.612-28.611 0.584z" />
<glyph unicode="&#xe96b;" glyph-name="comment" data-tags="bubble, comment, chat, talk" d="M512 896c282.77 0 512-186.25 512-416 0-229.752-229.23-416-512-416-27.156 0-53.81 1.734-79.824 5.044-109.978-109.978-241.25-129.7-368.176-132.596v26.916c68.536 33.578 128 94.74 128 164.636 0 9.754-0.758 19.33-2.164 28.696-115.796 76.264-189.836 192.754-189.836 323.304 0 229.75 229.23 416 512 416z" />
<glyph unicode="&#xe9da;" glyph-name="heart" data-tags="heart, like, love, favorite" d="M755.188 896c-107.63 0-200.258-87.554-243.164-179-42.938 91.444-135.578 179-243.216 179-148.382 0-268.808-120.44-268.808-268.832 0-301.846 304.5-380.994 512.022-679.418 196.154 296.576 511.978 387.206 511.978 679.418 0 148.392-120.43 268.832-268.812 268.832z" />
<glyph unicode="&#xe9db;" glyph-name="heart-broken" data-tags="heart-broken, heart, like, love" d="M755.188 896c148.382 0 268.812-120.44 268.812-268.832 0-292.21-315.824-382.842-511.978-679.418-207.522 298.424-512.022 377.572-512.022 679.418 0 148.392 120.426 268.832 268.808 268.832 60.354 0 115.99-27.53 160.796-67.834l-77.604-124.166 224-128-128-320 352 384-224 128 61.896 92.846c35.42 21.768 75.21 35.154 117.292 35.154z" />
<glyph unicode="&#xea87;" glyph-name="amazon-logo" data-tags="amazon, brand" d="M869.757 125.187c-97.051-71.62-237.525-109.68-358.623-109.68-169.71 0-322.467 62.625-438.028 167.115-8.996 8.13-1.038 19.376 9.86 12.974 124.731-72.658 279.044-116.254 438.374-116.254 107.431 0 225.588 22.316 334.403 68.507 16.262 6.92 30.102-10.898 14.012-22.662zM910.066 171.205c-12.456 15.916-82 7.612-113.313 3.806-9.514-1.038-10.898 7.092-2.422 13.148 55.532 38.924 146.528 27.68 157.081 14.704 10.726-13.148-2.768-104.317-54.84-147.912-7.958-6.746-15.57-3.114-12.11 5.708 11.936 29.236 38.060 94.629 25.604 110.545zM681.018 235.56l0.173-0.173c21.452 18.856 60.030 52.591 81.828 70.756 8.65 6.92 7.092 18.51 0.346 28.198-19.548 26.988-40.308 48.958-40.308 98.781v166.077c0 70.41 4.844 134.938-46.882 183.377-40.828 39.098-108.642 52.937-160.541 52.937-101.376 0-214.516-37.886-238.217-163.136-2.595-13.32 7.266-20.414 15.916-22.316l103.279-11.244c9.688 0.519 16.608 10.034 18.51 19.722 8.822 43.076 44.98 64.009 85.634 64.009 21.97 0 46.882-7.958 59.857-27.68 14.878-21.97 12.974-51.899 12.974-77.33v-13.84c-61.76-6.92-142.549-11.418-200.331-36.848-66.777-28.89-113.659-87.71-113.659-174.208 0-110.718 69.718-166.077 159.503-166.077 75.772 0 117.119 17.818 175.592 77.676 19.376-28.026 25.604-41.692 61.068-71.102 8.13-4.325 18.164-3.979 25.258 2.422zM573.587 495.401c0-41.52 1.038-76.118-19.894-112.967-16.954-30.102-43.768-48.439-73.696-48.439-40.828 0-64.701 31.14-64.701 77.156 0 90.824 81.482 107.258 158.465 107.258v-23.008z" />
<glyph unicode="&#xea8b;" glyph-name="googleplus" data-tags="google-plus, brand, social" d="M307.518 507.961v-122.777h202.945c-8.127-52.713-61.279-154.405-202.945-154.405-122.118 0-221.834 101.253-221.834 226.007s99.715 226.007 221.834 226.007c69.625 0 115.968-29.651 142.545-55.129l97.080 93.565c-62.377 58.204-143.204 93.565-239.624 93.565-197.893-0.22-357.789-160.116-357.789-358.009s159.896-357.789 357.789-357.789c206.459 0 343.513 145.18 343.513 349.663 0 23.501-2.636 41.511-5.711 59.302h-337.802zM1074.271 518.284h-105.426v105.426h-105.426v-105.426h-105.426v-105.426h105.426v-105.426h105.426v105.426h105.426z" />
<glyph unicode="&#xea92;" glyph-name="instagram-logo" data-tags="instagram, brand, social" d="M512 867.8c136.8 0 153-0.6 206.8-3 50-2.2 77-10.6 95-17.6 23.8-9.2 41-20.4 58.8-38.2 18-18 29-35 38.4-58.8 7-18 15.4-45.2 17.6-95 2.4-54 3-70.2 3-206.8s-0.6-153-3-206.8c-2.2-50-10.6-77-17.6-95-9.2-23.8-20.4-41-38.2-58.8-18-18-35-29-58.8-38.4-18-7-45.2-15.4-95-17.6-54-2.4-70.2-3-206.8-3s-153 0.6-206.8 3c-50 2.2-77 10.6-95 17.6-23.8 9.2-41 20.4-58.8 38.2-18 18-29 35-38.4 58.8-7 18-15.4 45.2-17.6 95-2.4 54-3 70.2-3 206.8s0.6 153 3 206.8c2.2 50 10.6 77 17.6 95 9.2 23.8 20.4 41 38.2 58.8 18 18 35 29 58.8 38.4 18 7 45.2 15.4 95 17.6 53.8 2.4 70 3 206.8 3zM512 960c-139 0-156.4-0.6-211-3-54.4-2.4-91.8-11.2-124.2-23.8-33.8-13.2-62.4-30.6-90.8-59.2-28.6-28.4-46-57-59.2-90.6-12.6-32.6-21.4-69.8-23.8-124.2-2.4-54.8-3-72.2-3-211.2s0.6-156.4 3-211c2.4-54.4 11.2-91.8 23.8-124.2 13.2-33.8 30.6-62.4 59.2-90.8 28.4-28.4 57-46 90.6-59 32.6-12.6 69.8-21.4 124.2-23.8 54.6-2.4 72-3 211-3s156.4 0.6 211 3c54.4 2.4 91.8 11.2 124.2 23.8 33.6 13 62.2 30.6 90.6 59s46 57 59 90.6c12.6 32.6 21.4 69.8 23.8 124.2 2.4 54.6 3 72 3 211s-0.6 156.4-3 211c-2.4 54.4-11.2 91.8-23.8 124.2-12.6 34-30 62.6-58.6 91-28.4 28.4-57 46-90.6 59-32.6 12.6-69.8 21.4-124.2 23.8-54.8 2.6-72.2 3.2-211.2 3.2v0zM512 711c-145.2 0-263-117.8-263-263s117.8-263 263-263 263 117.8 263 263c0 145.2-117.8 263-263 263zM512 277.4c-94.2 0-170.6 76.4-170.6 170.6s76.4 170.6 170.6 170.6c94.2 0 170.6-76.4 170.6-170.6s-76.4-170.6-170.6-170.6zM846.8 721.4c0-33.91-27.49-61.4-61.4-61.4s-61.4 27.49-61.4 61.4c0 33.91 27.49 61.4 61.4 61.4s61.4-27.49 61.4-61.4z" />
<glyph unicode="&#xea9f;" glyph-name="twitch-logo" data-tags="twitch, brand, social" d="M96 960l-96-160v-736h256v-128h128l128 128h160l288 288v608h-864zM832 416l-160-160h-160l-128-128v128h-192v576h640v-416zM608 704h96v-256h-96v256zM416 704h96v-256h-96v256z" />
<glyph unicode="&#xeab0;" glyph-name="github-logo" data-tags="github, brand, octacat, social" d="M512.007 851.362c-228.384 0-413.578-185.154-413.578-413.572 0-182.726 118.501-337.751 282.825-392.437 20.666-3.825 28.266 8.974 28.266 19.899 0 9.858-0.387 42.441-0.56 77-115.064-25.021-139.342 48.797-139.342 48.797-18.806 47.8-45.919 60.514-45.919 60.514-37.52 25.67 2.835 25.141 2.835 25.141 41.518-2.917 63.389-42.623 63.389-42.623 36.891-63.222 96.751-44.944 120.36-34.377 3.706 26.726 14.42 44.976 26.257 55.303-91.866 10.455-188.431 45.921-188.431 204.39 0 45.152 16.158 82.047 42.617 111.009-4.293 10.418-18.462 52.482 4.001 109.451 0 0 34.738 11.109 113.765-42.398 32.985 9.167 68.365 13.76 103.518 13.922 35.139-0.159 70.546-4.755 103.6-13.922 78.945 53.509 113.617 42.398 113.617 42.398 22.514-56.97 8.361-99.032 4.067-109.451 26.511-28.962 42.564-65.857 42.564-111.009 0-158.848-96.752-193.822-188.847-204.060 14.833-12.836 28.049-38.001 28.049-76.584 0-55.338-0.482-99.875-0.482-113.496 0-11.009 7.449-23.906 28.41-19.844 164.235 54.747 282.588 209.715 282.588 392.384 0 228.417-185.166 413.572-413.565 413.572z" />
<glyph unicode="&#xeac3;" glyph-name="soundcloud-logo" data-tags="soundcloud, brand, social" d="M891.96 445.796c-18.086 0-35.348-3.52-51.064-9.856-10.506 114.358-110.29 204.060-232 204.060-29.786 0-58.682-5.63-84.318-15.164-9.96-3.702-12.578-7.52-12.578-14.916v-402.714c0-7.766 6.24-14.234 14.124-14.996 0.336-0.034 363.536-0.21 365.89-0.21 72.904 0 131.986 56.816 131.986 126.894s-59.134 126.902-132.040 126.902zM400 192h32l16 224.22-16 223.78h-32l-16-223.78zM304 192h-32l-16 162.75 16 157.25h32l16-160zM144 192h32l16 128-16 128h-32l-16-128zM16 256h32l16 64-16 64h-32l-16-64z" />
<glyph unicode="&#xeaca;" glyph-name="linkedin-logo" data-tags="linkedin, brand, social" d="M403.692 556.308h149.859v-76.816h2.142c20.85 37.395 71.888 76.816 147.944 76.816 158.186 0 187.44-98.472 187.44-226.545v-260.841h-156.209v231.236c0 55.156-1.128 126.099-81.254 126.099-81.356 0-93.771-60.066-93.771-122.094v-235.241h-156.151v487.385zM132.923 556.308h162.462v-487.385h-162.462v487.385zM295.384 691.693c0-44.863-36.369-81.231-81.231-81.231s-81.231 36.369-81.231 81.231c0 44.863 36.369 81.231 81.231 81.231s81.231-36.369 81.231-81.231z" />
<glyph unicode="&#xeacb;" glyph-name="linkedin" data-tags="linkedin, brand, social" d="M384 576h177.105v-90.782h2.532c24.64 44.193 84.958 90.782 174.842 90.782 186.946 0 221.517-116.375 221.517-267.733v-308.264h-184.609v273.277c0 65.184-1.331 149.025-96.024 149.025-96.148 0-110.818-70.986-110.818-144.292v-278.010h-184.541v575.996zM64.005 576h191.999v-575.996h-191.999v575.996zM256.001 735.999c0-53.019-42.981-95.998-95.998-95.998s-95.998 42.981-95.998 95.998c0 53.019 42.981 95.998 95.998 95.998s95.998-42.981 95.998-95.998z" />
<glyph unicode="&#xeae8;" glyph-name="codepen-logo" data-tags="codepen, brand" d="M916.834 582.361l-418.134 278.755c-10.032 6.688-23.102 6.688-33.133 0l-418.134-278.755c-8.31-5.538-13.3-14.864-13.3-24.849v-278.755c0-9.987 4.992-19.314 13.3-24.849l418.134-278.755c5.016-3.345 10.791-5.018 16.567-5.018s11.551 1.674 16.567 5.018l418.134 278.755c8.31 5.538 13.3 14.864 13.3 24.849v278.755c0 9.985-4.992 19.311-13.3 24.849zM482.133 314.649l-155.225 103.484 155.225 103.484 155.225-103.484-155.225-103.484zM512 573.494v206.967l334.423-222.951-155.223-103.484-179.2 119.467zM452.267 573.494l-179.2-119.467-155.225 103.484 334.425 222.951v-206.967zM219.224 418.133l-125.358-83.573v167.142l125.358-83.571zM273.066 382.239l179.2-119.467v-206.965l-334.425 222.949 155.225 103.484zM512 262.772l179.2 119.467 155.225-103.484-334.425-222.949v206.967zM745.043 418.133l125.358 83.571v-167.145l-125.358 83.574z" />
<glyph unicode="" glyph-name="codepen-logo" data-tags="codepen, brand" d="M916.834 582.361l-418.134 278.755c-10.032 6.688-23.102 6.688-33.133 0l-418.134-278.755c-8.31-5.538-13.3-14.864-13.3-24.849v-278.755c0-9.987 4.992-19.314 13.3-24.849l418.134-278.755c5.016-3.345 10.791-5.018 16.567-5.018s11.551 1.674 16.567 5.018l418.134 278.755c8.31 5.538 13.3 14.864 13.3 24.849v278.755c0 9.985-4.992 19.311-13.3 24.849zM482.133 314.649l-155.225 103.484 155.225 103.484 155.225-103.484-155.225-103.484zM512 573.494v206.967l334.423-222.951-155.223-103.484-179.2 119.467zM452.267 573.494l-179.2-119.467-155.225 103.484 334.425 222.951v-206.967zM219.224 418.133l-125.358-83.573v167.142l125.358-83.571zM273.066 382.239l179.2-119.467v-206.965l-334.425 222.949 155.225 103.484zM512 262.772l179.2 119.467 155.225-103.484-334.425-222.949v206.967zM745.043 418.133l125.358 83.571v-167.145l-125.358 83.574z" />
<glyph unicode="twitch" glyph-name="twitch-logo" data-tags="twitch, brand, social" d="M96 960l-96-160v-736h256v-128h128l128 128h160l288 288v608h-864zM832 416l-160-160h-160l-128-128v128h-192v576h640v-416zM608 704h96v-256h-96v256zM416 704h96v-256h-96v256z" />
<glyph unicode="soundcloud" glyph-name="soundcloud-logo" data-tags="soundcloud, brand, social" d="M891.96 445.796c-18.086 0-35.348-3.52-51.064-9.856-10.506 114.358-110.29 204.060-232 204.060-29.786 0-58.682-5.63-84.318-15.164-9.96-3.702-12.578-7.52-12.578-14.916v-402.714c0-7.766 6.24-14.234 14.124-14.996 0.336-0.034 363.536-0.21 365.89-0.21 72.904 0 131.986 56.816 131.986 126.894s-59.134 126.902-132.040 126.902zM400 192h32l16 224.22-16 223.78h-32l-16-223.78zM304 192h-32l-16 162.75 16 157.25h32l16-160zM144 192h32l16 128-16 128h-32l-16-128zM16 256h32l16 64-16 64h-32l-16-64z" />
<glyph unicode="linkedin2" glyph-name="linkedin-logo" data-tags="linkedin, brand, social" d="M403.692 556.308h149.859v-76.816h2.142c20.85 37.395 71.888 76.816 147.944 76.816 158.186 0 187.44-98.472 187.44-226.545v-260.841h-156.209v231.236c0 55.156-1.128 126.099-81.254 126.099-81.356 0-93.771-60.066-93.771-122.094v-235.241h-156.151v487.385zM132.923 556.308h162.462v-487.385h-162.462v487.385zM295.384 691.693c0-44.863-36.369-81.231-81.231-81.231s-81.231 36.369-81.231 81.231c0 44.863 36.369 81.231 81.231 81.231s81.231-36.369 81.231-81.231z" />
<glyph unicode="linkedin2" glyph-name="linkedin" data-tags="linkedin, brand, social" d="M384 576h177.105v-90.782h2.532c24.64 44.193 84.958 90.782 174.842 90.782 186.946 0 221.517-116.375 221.517-267.733v-308.264h-184.609v273.277c0 65.184-1.331 149.025-96.024 149.025-96.148 0-110.818-70.986-110.818-144.292v-278.010h-184.541v575.996zM64.005 576h191.999v-575.996h-191.999v575.996zM256.001 735.999c0-53.019-42.981-95.998-95.998-95.998s-95.998 42.981-95.998 95.998c0 53.019 42.981 95.998 95.998 95.998s95.998-42.981 95.998-95.998z" />
<glyph unicode="like" glyph-name="heart" data-tags="heart, like, love, favorite" d="M755.188 896c-107.63 0-200.258-87.554-243.164-179-42.938 91.444-135.578 179-243.216 179-148.382 0-268.808-120.44-268.808-268.832 0-301.846 304.5-380.994 512.022-679.418 196.154 296.576 511.978 387.206 511.978 679.418 0 148.392-120.43 268.832-268.812 268.832z" />
<glyph unicode="instagram" glyph-name="instagram-logo" data-tags="instagram, brand, social" d="M512 867.8c136.8 0 153-0.6 206.8-3 50-2.2 77-10.6 95-17.6 23.8-9.2 41-20.4 58.8-38.2 18-18 29-35 38.4-58.8 7-18 15.4-45.2 17.6-95 2.4-54 3-70.2 3-206.8s-0.6-153-3-206.8c-2.2-50-10.6-77-17.6-95-9.2-23.8-20.4-41-38.2-58.8-18-18-35-29-58.8-38.4-18-7-45.2-15.4-95-17.6-54-2.4-70.2-3-206.8-3s-153 0.6-206.8 3c-50 2.2-77 10.6-95 17.6-23.8 9.2-41 20.4-58.8 38.2-18 18-29 35-38.4 58.8-7 18-15.4 45.2-17.6 95-2.4 54-3 70.2-3 206.8s0.6 153 3 206.8c2.2 50 10.6 77 17.6 95 9.2 23.8 20.4 41 38.2 58.8 18 18 35 29 58.8 38.4 18 7 45.2 15.4 95 17.6 53.8 2.4 70 3 206.8 3zM512 960c-139 0-156.4-0.6-211-3-54.4-2.4-91.8-11.2-124.2-23.8-33.8-13.2-62.4-30.6-90.8-59.2-28.6-28.4-46-57-59.2-90.6-12.6-32.6-21.4-69.8-23.8-124.2-2.4-54.8-3-72.2-3-211.2s0.6-156.4 3-211c2.4-54.4 11.2-91.8 23.8-124.2 13.2-33.8 30.6-62.4 59.2-90.8 28.4-28.4 57-46 90.6-59 32.6-12.6 69.8-21.4 124.2-23.8 54.6-2.4 72-3 211-3s156.4 0.6 211 3c54.4 2.4 91.8 11.2 124.2 23.8 33.6 13 62.2 30.6 90.6 59s46 57 59 90.6c12.6 32.6 21.4 69.8 23.8 124.2 2.4 54.6 3 72 3 211s-0.6 156.4-3 211c-2.4 54.4-11.2 91.8-23.8 124.2-12.6 34-30 62.6-58.6 91-28.4 28.4-57 46-90.6 59-32.6 12.6-69.8 21.4-124.2 23.8-54.8 2.6-72.2 3.2-211.2 3.2v0zM512 711c-145.2 0-263-117.8-263-263s117.8-263 263-263 263 117.8 263 263c0 145.2-117.8 263-263 263zM512 277.4c-94.2 0-170.6 76.4-170.6 170.6s76.4 170.6 170.6 170.6c94.2 0 170.6-76.4 170.6-170.6s-76.4-170.6-170.6-170.6zM846.8 721.4c0-33.91-27.49-61.4-61.4-61.4s-61.4 27.49-61.4 61.4c0 33.91 27.49 61.4 61.4 61.4s61.4-27.49 61.4-61.4z" />
<glyph unicode="house3" glyph-name="home-logo" data-tags="home, house" d="M948.151 366.222l-163.556 163.556v245.335h-109.038v-136.297l-163.556 163.556-436.151-436.151v-27.26h109.038v-272.594h272.594v163.556h109.038v-163.556h272.594v272.594h109.038z" />
<glyph unicode="home3" glyph-name="home-logo" data-tags="home, house" d="M948.151 366.222l-163.556 163.556v245.335h-109.038v-136.297l-163.556 163.556-436.151-436.151v-27.26h109.038v-272.594h272.594v163.556h109.038v-163.556h272.594v272.594h109.038z" />
<glyph unicode="heart2" glyph-name="heart-broken" data-tags="heart-broken, heart, like, love" d="M755.188 896c148.382 0 268.812-120.44 268.812-268.832 0-292.21-315.824-382.842-511.978-679.418-207.522 298.424-512.022 377.572-512.022 679.418 0 148.392 120.426 268.832 268.808 268.832 60.354 0 115.99-27.53 160.796-67.834l-77.604-124.166 224-128-128-320 352 384-224 128 61.896 92.846c35.42 21.768 75.21 35.154 117.292 35.154z" />
<glyph unicode="heart-broken" glyph-name="heart-broken" data-tags="heart-broken, heart, like, love" d="M755.188 896c148.382 0 268.812-120.44 268.812-268.832 0-292.21-315.824-382.842-511.978-679.418-207.522 298.424-512.022 377.572-512.022 679.418 0 148.392 120.426 268.832 268.808 268.832 60.354 0 115.99-27.53 160.796-67.834l-77.604-124.166 224-128-128-320 352 384-224 128 61.896 92.846c35.42 21.768 75.21 35.154 117.292 35.154z" />
<glyph unicode="heart" glyph-name="heart" data-tags="heart, like, love, favorite" d="M755.188 896c-107.63 0-200.258-87.554-243.164-179-42.938 91.444-135.578 179-243.216 179-148.382 0-268.808-120.44-268.808-268.832 0-301.846 304.5-380.994 512.022-679.418 196.154 296.576 511.978 387.206 511.978 679.418 0 148.392-120.43 268.832-268.812 268.832z" />
<glyph unicode="google-plus" glyph-name="googleplus" data-tags="google-plus, brand, social" d="M307.518 507.961v-122.777h202.945c-8.127-52.713-61.279-154.405-202.945-154.405-122.118 0-221.834 101.253-221.834 226.007s99.715 226.007 221.834 226.007c69.625 0 115.968-29.651 142.545-55.129l97.080 93.565c-62.377 58.204-143.204 93.565-239.624 93.565-197.893-0.22-357.789-160.116-357.789-358.009s159.896-357.789 357.789-357.789c206.459 0 343.513 145.18 343.513 349.663 0 23.501-2.636 41.511-5.711 59.302h-337.802zM1074.271 518.284h-105.426v105.426h-105.426v-105.426h-105.426v-105.426h105.426v-105.426h105.426v105.426h105.426z" />
<glyph unicode="github" glyph-name="github-logo" data-tags="github, brand, octacat, social" d="M512.007 851.362c-228.384 0-413.578-185.154-413.578-413.572 0-182.726 118.501-337.751 282.825-392.437 20.666-3.825 28.266 8.974 28.266 19.899 0 9.858-0.387 42.441-0.56 77-115.064-25.021-139.342 48.797-139.342 48.797-18.806 47.8-45.919 60.514-45.919 60.514-37.52 25.67 2.835 25.141 2.835 25.141 41.518-2.917 63.389-42.623 63.389-42.623 36.891-63.222 96.751-44.944 120.36-34.377 3.706 26.726 14.42 44.976 26.257 55.303-91.866 10.455-188.431 45.921-188.431 204.39 0 45.152 16.158 82.047 42.617 111.009-4.293 10.418-18.462 52.482 4.001 109.451 0 0 34.738 11.109 113.765-42.398 32.985 9.167 68.365 13.76 103.518 13.922 35.139-0.159 70.546-4.755 103.6-13.922 78.945 53.509 113.617 42.398 113.617 42.398 22.514-56.97 8.361-99.032 4.067-109.451 26.511-28.962 42.564-65.857 42.564-111.009 0-158.848-96.752-193.822-188.847-204.060 14.833-12.836 28.049-38.001 28.049-76.584 0-55.338-0.482-99.875-0.482-113.496 0-11.009 7.449-23.906 28.41-19.844 164.235 54.747 282.588 209.715 282.588 392.384 0 228.417-185.166 413.572-413.565 413.572z" />
<glyph unicode="comment" glyph-name="comment" data-tags="bubble, comment, chat, talk" d="M512 896c282.77 0 512-186.25 512-416 0-229.752-229.23-416-512-416-27.156 0-53.81 1.734-79.824 5.044-109.978-109.978-241.25-129.7-368.176-132.596v26.916c68.536 33.578 128 94.74 128 164.636 0 9.754-0.758 19.33-2.164 28.696-115.796 76.264-189.836 192.754-189.836 323.304 0 229.75 229.23 416 512 416z" />
<glyph unicode="codepen" glyph-name="codepen-logo" data-tags="codepen, brand" d="M916.834 582.361l-418.134 278.755c-10.032 6.688-23.102 6.688-33.133 0l-418.134-278.755c-8.31-5.538-13.3-14.864-13.3-24.849v-278.755c0-9.987 4.992-19.314 13.3-24.849l418.134-278.755c5.016-3.345 10.791-5.018 16.567-5.018s11.551 1.674 16.567 5.018l418.134 278.755c8.31 5.538 13.3 14.864 13.3 24.849v278.755c0 9.985-4.992 19.311-13.3 24.849zM482.133 314.649l-155.225 103.484 155.225 103.484 155.225-103.484-155.225-103.484zM512 573.494v206.967l334.423-222.951-155.223-103.484-179.2 119.467zM452.267 573.494l-179.2-119.467-155.225 103.484 334.425 222.951v-206.967zM219.224 418.133l-125.358-83.573v167.142l125.358-83.571zM273.066 382.239l179.2-119.467v-206.965l-334.425 222.949 155.225 103.484zM512 262.772l179.2 119.467 155.225-103.484-334.425-222.949v206.967zM745.043 418.133l125.358 83.571v-167.145l-125.358 83.574z" />
<glyph unicode="bubble" glyph-name="comment" data-tags="bubble, comment, chat, talk" d="M512 896c282.77 0 512-186.25 512-416 0-229.752-229.23-416-512-416-27.156 0-53.81 1.734-79.824 5.044-109.978-109.978-241.25-129.7-368.176-132.596v26.916c68.536 33.578 128 94.74 128 164.636 0 9.754-0.758 19.33-2.164 28.696-115.796 76.264-189.836 192.754-189.836 323.304 0 229.75 229.23 416 512 416z" />
<glyph unicode="brand81" glyph-name="codepen-logo" data-tags="codepen, brand" d="M916.834 582.361l-418.134 278.755c-10.032 6.688-23.102 6.688-33.133 0l-418.134-278.755c-8.31-5.538-13.3-14.864-13.3-24.849v-278.755c0-9.987 4.992-19.314 13.3-24.849l418.134-278.755c5.016-3.345 10.791-5.018 16.567-5.018s11.551 1.674 16.567 5.018l418.134 278.755c8.31 5.538 13.3 14.864 13.3 24.849v278.755c0 9.985-4.992 19.311-13.3 24.849zM482.133 314.649l-155.225 103.484 155.225 103.484 155.225-103.484-155.225-103.484zM512 573.494v206.967l334.423-222.951-155.223-103.484-179.2 119.467zM452.267 573.494l-179.2-119.467-155.225 103.484 334.425 222.951v-206.967zM219.224 418.133l-125.358-83.573v167.142l125.358-83.571zM273.066 382.239l179.2-119.467v-206.965l-334.425 222.949 155.225 103.484zM512 262.772l179.2 119.467 155.225-103.484-334.425-222.949v206.967zM745.043 418.133l125.358 83.571v-167.145l-125.358 83.574z" />
<glyph unicode="brand65" glyph-name="linkedin-logo" data-tags="linkedin, brand, social" d="M403.692 556.308h149.859v-76.816h2.142c20.85 37.395 71.888 76.816 147.944 76.816 158.186 0 187.44-98.472 187.44-226.545v-260.841h-156.209v231.236c0 55.156-1.128 126.099-81.254 126.099-81.356 0-93.771-60.066-93.771-122.094v-235.241h-156.151v487.385zM132.923 556.308h162.462v-487.385h-162.462v487.385zM295.384 691.693c0-44.863-36.369-81.231-81.231-81.231s-81.231 36.369-81.231 81.231c0 44.863 36.369 81.231 81.231 81.231s81.231-36.369 81.231-81.231z" />
<glyph unicode="brand65" glyph-name="linkedin" data-tags="linkedin, brand, social" d="M384 576h177.105v-90.782h2.532c24.64 44.193 84.958 90.782 174.842 90.782 186.946 0 221.517-116.375 221.517-267.733v-308.264h-184.609v273.277c0 65.184-1.331 149.025-96.024 149.025-96.148 0-110.818-70.986-110.818-144.292v-278.010h-184.541v575.996zM64.005 576h191.999v-575.996h-191.999v575.996zM256.001 735.999c0-53.019-42.981-95.998-95.998-95.998s-95.998 42.981-95.998 95.998c0 53.019 42.981 95.998 95.998 95.998s95.998-42.981 95.998-95.998z" />
<glyph unicode="brand58" glyph-name="soundcloud-logo" data-tags="soundcloud, brand, social" d="M891.96 445.796c-18.086 0-35.348-3.52-51.064-9.856-10.506 114.358-110.29 204.060-232 204.060-29.786 0-58.682-5.63-84.318-15.164-9.96-3.702-12.578-7.52-12.578-14.916v-402.714c0-7.766 6.24-14.234 14.124-14.996 0.336-0.034 363.536-0.21 365.89-0.21 72.904 0 131.986 56.816 131.986 126.894s-59.134 126.902-132.040 126.902zM400 192h32l16 224.22-16 223.78h-32l-16-223.78zM304 192h-32l-16 162.75 16 157.25h32l16-160zM144 192h32l16 128-16 128h-32l-16-128zM16 256h32l16 64-16 64h-32l-16-64z" />
<glyph unicode="brand5" glyph-name="googleplus" data-tags="google-plus, brand, social" d="M307.518 507.961v-122.777h202.945c-8.127-52.713-61.279-154.405-202.945-154.405-122.118 0-221.834 101.253-221.834 226.007s99.715 226.007 221.834 226.007c69.625 0 115.968-29.651 142.545-55.129l97.080 93.565c-62.377 58.204-143.204 93.565-239.624 93.565-197.893-0.22-357.789-160.116-357.789-358.009s159.896-357.789 357.789-357.789c206.459 0 343.513 145.18 343.513 349.663 0 23.501-2.636 41.511-5.711 59.302h-337.802zM1074.271 518.284h-105.426v105.426h-105.426v-105.426h-105.426v-105.426h105.426v-105.426h105.426v105.426h105.426z" />
<glyph unicode="brand40" glyph-name="github-logo" data-tags="github, brand, octacat, social" d="M512.007 851.362c-228.384 0-413.578-185.154-413.578-413.572 0-182.726 118.501-337.751 282.825-392.437 20.666-3.825 28.266 8.974 28.266 19.899 0 9.858-0.387 42.441-0.56 77-115.064-25.021-139.342 48.797-139.342 48.797-18.806 47.8-45.919 60.514-45.919 60.514-37.52 25.67 2.835 25.141 2.835 25.141 41.518-2.917 63.389-42.623 63.389-42.623 36.891-63.222 96.751-44.944 120.36-34.377 3.706 26.726 14.42 44.976 26.257 55.303-91.866 10.455-188.431 45.921-188.431 204.39 0 45.152 16.158 82.047 42.617 111.009-4.293 10.418-18.462 52.482 4.001 109.451 0 0 34.738 11.109 113.765-42.398 32.985 9.167 68.365 13.76 103.518 13.922 35.139-0.159 70.546-4.755 103.6-13.922 78.945 53.509 113.617 42.398 113.617 42.398 22.514-56.97 8.361-99.032 4.067-109.451 26.511-28.962 42.564-65.857 42.564-111.009 0-158.848-96.752-193.822-188.847-204.060 14.833-12.836 28.049-38.001 28.049-76.584 0-55.338-0.482-99.875-0.482-113.496 0-11.009 7.449-23.906 28.41-19.844 164.235 54.747 282.588 209.715 282.588 392.384 0 228.417-185.166 413.572-413.565 413.572z" />
<glyph unicode="brand23" glyph-name="twitch-logo" data-tags="twitch, brand, social" d="M96 960l-96-160v-736h256v-128h128l128 128h160l288 288v608h-864zM832 416l-160-160h-160l-128-128v128h-192v576h640v-416zM608 704h96v-256h-96v256zM416 704h96v-256h-96v256z" />
<glyph unicode="brand12" glyph-name="instagram-logo" data-tags="instagram, brand, social" d="M512 867.8c136.8 0 153-0.6 206.8-3 50-2.2 77-10.6 95-17.6 23.8-9.2 41-20.4 58.8-38.2 18-18 29-35 38.4-58.8 7-18 15.4-45.2 17.6-95 2.4-54 3-70.2 3-206.8s-0.6-153-3-206.8c-2.2-50-10.6-77-17.6-95-9.2-23.8-20.4-41-38.2-58.8-18-18-35-29-58.8-38.4-18-7-45.2-15.4-95-17.6-54-2.4-70.2-3-206.8-3s-153 0.6-206.8 3c-50 2.2-77 10.6-95 17.6-23.8 9.2-41 20.4-58.8 38.2-18 18-29 35-38.4 58.8-7 18-15.4 45.2-17.6 95-2.4 54-3 70.2-3 206.8s0.6 153 3 206.8c2.2 50 10.6 77 17.6 95 9.2 23.8 20.4 41 38.2 58.8 18 18 35 29 58.8 38.4 18 7 45.2 15.4 95 17.6 53.8 2.4 70 3 206.8 3zM512 960c-139 0-156.4-0.6-211-3-54.4-2.4-91.8-11.2-124.2-23.8-33.8-13.2-62.4-30.6-90.8-59.2-28.6-28.4-46-57-59.2-90.6-12.6-32.6-21.4-69.8-23.8-124.2-2.4-54.8-3-72.2-3-211.2s0.6-156.4 3-211c2.4-54.4 11.2-91.8 23.8-124.2 13.2-33.8 30.6-62.4 59.2-90.8 28.4-28.4 57-46 90.6-59 32.6-12.6 69.8-21.4 124.2-23.8 54.6-2.4 72-3 211-3s156.4 0.6 211 3c54.4 2.4 91.8 11.2 124.2 23.8 33.6 13 62.2 30.6 90.6 59s46 57 59 90.6c12.6 32.6 21.4 69.8 23.8 124.2 2.4 54.6 3 72 3 211s-0.6 156.4-3 211c-2.4 54.4-11.2 91.8-23.8 124.2-12.6 34-30 62.6-58.6 91-28.4 28.4-57 46-90.6 59-32.6 12.6-69.8 21.4-124.2 23.8-54.8 2.6-72.2 3.2-211.2 3.2v0zM512 711c-145.2 0-263-117.8-263-263s117.8-263 263-263 263 117.8 263 263c0 145.2-117.8 263-263 263zM512 277.4c-94.2 0-170.6 76.4-170.6 170.6s76.4 170.6 170.6 170.6c94.2 0 170.6-76.4 170.6-170.6s-76.4-170.6-170.6-170.6zM846.8 721.4c0-33.91-27.49-61.4-61.4-61.4s-61.4 27.49-61.4 61.4c0 33.91 27.49 61.4 61.4 61.4s61.4-27.49 61.4-61.4z" />
<glyph unicode="brand" glyph-name="amazon-logo" data-tags="amazon, brand" d="M869.757 125.187c-97.051-71.62-237.525-109.68-358.623-109.68-169.71 0-322.467 62.625-438.028 167.115-8.996 8.13-1.038 19.376 9.86 12.974 124.731-72.658 279.044-116.254 438.374-116.254 107.431 0 225.588 22.316 334.403 68.507 16.262 6.92 30.102-10.898 14.012-22.662zM910.066 171.205c-12.456 15.916-82 7.612-113.313 3.806-9.514-1.038-10.898 7.092-2.422 13.148 55.532 38.924 146.528 27.68 157.081 14.704 10.726-13.148-2.768-104.317-54.84-147.912-7.958-6.746-15.57-3.114-12.11 5.708 11.936 29.236 38.060 94.629 25.604 110.545zM681.018 235.56l0.173-0.173c21.452 18.856 60.030 52.591 81.828 70.756 8.65 6.92 7.092 18.51 0.346 28.198-19.548 26.988-40.308 48.958-40.308 98.781v166.077c0 70.41 4.844 134.938-46.882 183.377-40.828 39.098-108.642 52.937-160.541 52.937-101.376 0-214.516-37.886-238.217-163.136-2.595-13.32 7.266-20.414 15.916-22.316l103.279-11.244c9.688 0.519 16.608 10.034 18.51 19.722 8.822 43.076 44.98 64.009 85.634 64.009 21.97 0 46.882-7.958 59.857-27.68 14.878-21.97 12.974-51.899 12.974-77.33v-13.84c-61.76-6.92-142.549-11.418-200.331-36.848-66.777-28.89-113.659-87.71-113.659-174.208 0-110.718 69.718-166.077 159.503-166.077 75.772 0 117.119 17.818 175.592 77.676 19.376-28.026 25.604-41.692 61.068-71.102 8.13-4.325 18.164-3.979 25.258 2.422zM573.587 495.401c0-41.52 1.038-76.118-19.894-112.967-16.954-30.102-43.768-48.439-73.696-48.439-40.828 0-64.701 31.14-64.701 77.156 0 90.824 81.482 107.258 158.465 107.258v-23.008z" />
<glyph unicode="amazon" glyph-name="amazon-logo" data-tags="amazon, brand" d="M869.757 125.187c-97.051-71.62-237.525-109.68-358.623-109.68-169.71 0-322.467 62.625-438.028 167.115-8.996 8.13-1.038 19.376 9.86 12.974 124.731-72.658 279.044-116.254 438.374-116.254 107.431 0 225.588 22.316 334.403 68.507 16.262 6.92 30.102-10.898 14.012-22.662zM910.066 171.205c-12.456 15.916-82 7.612-113.313 3.806-9.514-1.038-10.898 7.092-2.422 13.148 55.532 38.924 146.528 27.68 157.081 14.704 10.726-13.148-2.768-104.317-54.84-147.912-7.958-6.746-15.57-3.114-12.11 5.708 11.936 29.236 38.060 94.629 25.604 110.545zM681.018 235.56l0.173-0.173c21.452 18.856 60.030 52.591 81.828 70.756 8.65 6.92 7.092 18.51 0.346 28.198-19.548 26.988-40.308 48.958-40.308 98.781v166.077c0 70.41 4.844 134.938-46.882 183.377-40.828 39.098-108.642 52.937-160.541 52.937-101.376 0-214.516-37.886-238.217-163.136-2.595-13.32 7.266-20.414 15.916-22.316l103.279-11.244c9.688 0.519 16.608 10.034 18.51 19.722 8.822 43.076 44.98 64.009 85.634 64.009 21.97 0 46.882-7.958 59.857-27.68 14.878-21.97 12.974-51.899 12.974-77.33v-13.84c-61.76-6.92-142.549-11.418-200.331-36.848-66.777-28.89-113.659-87.71-113.659-174.208 0-110.718 69.718-166.077 159.503-166.077 75.772 0 117.119 17.818 175.592 77.676 19.376-28.026 25.604-41.692 61.068-71.102 8.13-4.325 18.164-3.979 25.258 2.422zM573.587 495.401c0-41.52 1.038-76.118-19.894-112.967-16.954-30.102-43.768-48.439-73.696-48.439-40.828 0-64.701 31.14-64.701 77.156 0 90.824 81.482 107.258 158.465 107.258v-23.008z" />
</font>
</defs>
</svg>
